  0
SECTION
  2
HEADER
  9
$ACADVER
  1
AC1032
  9
$ACADMAINTVER
 90
        4
  9
$DWGCODEPAGE
  3
ANSI_1252
  9
$REQUIREDVERSIONS
160
                 0
  9
$INSBASE
 10
0.0
 20
0.0
 30
0.0
  9
$EXTMIN
 10
0.0
 20
0.0
 30
0.0
  9
$EXTMAX
 10
640.0
 20
320.0
 30
0.0
  9
$LIMMIN
 10
0.0
 20
0.0
  9
$LIMMAX
 10
640.0
 20
320.0
  9
$ORTHOMODE
 70
     0
  9
$REGENMODE
 70
     1
  9
$FILLMODE
 70
     1
  9
$QTEXTMODE
 70
     0
  9
$MIRRTEXT
 70
     1
  9
$LTSCALE
 40
8.0
  9
$ATTMODE
 70
     1
  9
$TEXTSIZE
 40
16.9333333333
  9
$TRACEWID
 40
1.0
  9
$TEXTSTYLE
  7
STANDARD
  9
$CLAYER
  8
0
  9
$CELTYPE
  6
ByLayer
  9
$CECOLOR
 62
   256
  9
$CELTSCALE
 40
1.0
  9
$DISPSILH
 70
     0
  9
$DIMSCALE
 40
1.0
  9
$DIMASZ
 40
16.0
  9
$DIMEXO
 40
4.0
  9
$DIMDLI
 40
3.75
  9
$DIMRND
 40
0.0
  9
$DIMDLE
 40
0.0
  9
$DIMEXE
 40
8.0
  9
$DIMTP
 40
0.0
  9
$DIMTM
 40
0.0
  9
$DIMTXT
 40
22.5777777778
  9
$DIMCEN
 40
2.5
  9
$DIMTSZ
 40
0.0
  9
$DIMTOL
 70
     0
  9
$DIMLIM
 70
     0
  9
$DIMTIH
 70
     1
  9
$DIMTOH
 70
     1
  9
$DIMSE1
 70
     0
  9
$DIMSE2
 70
     0
  9
$DIMTAD
 70
     1
  9
$DIMZIN
 70
     0
  9
$DIMBLK
  1

  9
$DIMASO
 70
     1
  9
$DIMSHO
 70
     1
  9
$DIMPOST
  1

  9
$DIMAPOST
  1

  9
$DIMALT
 70
     0
  9
$DIMALTD
 70
     3
  9
$DIMALTF
 40
0.0393700787
  9
$DIMLFAC
 40
1.0
  9
$DIMTOFL
 70
     1
  9
$DIMTVP
 40
0.0
  9
$DIMTIX
 70
     0
  9
$DIMSOXD
 70
     0
  9
$DIMSAH
 70
     0
  9
$DIMBLK1
  1

  9
$DIMBLK2
  1

  9
$DIMSTYLE
  2
ISO-25
  9
$DIMCLRD
 70
     0
  9
$DIMCLRE
 70
     0
  9
$DIMCLRT
 70
     0
  9
$DIMTFAC
 40
1.0
  9
$DIMGAP
 40
8.0
  9
$DIMJUST
 70
     0
  9
$DIMSD1
 70
     0
  9
$DIMSD2
 70
     0
  9
$DIMTOLJ
 70
     0
  9
$DIMTZIN
 70
     0
  9
$DIMALTZ
 70
     0
  9
$DIMALTTZ
 70
     0
  9
$DIMUPT
 70
     0
  9
$DIMDEC
 70
     2
  9
$DIMTDEC
 70
     2
  9
$DIMALTU
 70
     2
  9
$DIMALTTD
 70
     3
  9
$DIMTXSTY
  7
STANDARD
  9
$DIMAUNIT
 70
     0
  9
$DIMADEC
 70
     1
  9
$DIMALTRND
 40
0.0
  9
$DIMAZIN
 70
     0
  9
$DIMDSEP
 70
    44
  9
$DIMATFIT
 70
     3
  9
$DIMFRAC
 70
     0
  9
$DIMLDRBLK
  1

  9
$DIMLUNIT
 70
     2
  9
$DIMLWD
 70
    -2
  9
$DIMLWE
 70
    -2
  9
$DIMTMOVE
 70
     0
  9
$DIMFXL
 40
1.0
  9
$DIMFXLON
 70
     0
  9
$DIMJOGANG
 40
0.7853981634
  9
$DIMTFILL
 70
     0
  9
$DIMTFILLCLR
 70
     0
  9
$DIMARCSYM
 70
     0
  9
$DIMLTYPE
  6

  9
$DIMLTEX1
  6

  9
$DIMLTEX2
  6

  9
$DIMTXTDIRECTION
 70
     0
  9
$LUNITS
 70
     2
  9
$LUPREC
 70
     2
  9
$SKETCHINC
 40
1.0
  9
$FILLETRAD
 40
10.0
  9
$AUNITS
 70
     0
  9
$AUPREC
 70
     1
  9
$MENU
  1
.
  9
$ELEVATION
 40
0.0
  9
$PELEVATION
 40
0.0
  9
$THICKNESS
 40
0.0
  9
$LIMCHECK
 70
     0
  9
$CHAMFERA
 40
0.0
  9
$CHAMFERB
 40
0.0
  9
$CHAMFERC
 40
0.0
  9
$CHAMFERD
 40
0.0
  9
$SKPOLY
 70
     0
  9
$TDCREATE
 40
2460811.589146424
  9
$TDUCREATE
 40
2460811.50581309
  9
$TDUPDATE
 40
2460811.589147268
  9
$TDUUPDATE
 40
2460811.505813935
  9
$TDINDWG
 40
0.0000000116
  9
$TDUSRTIMER
 40
0.0000000116
  9
$USRTIMER
 70
     1
  9
$ANGBASE
 50
0.0
  9
$ANGDIR
 70
     0
  9
$PDMODE
 70
     0
  9
$PDSIZE
 40
-1.0
  9
$PLINEWID
 40
0.0
  9
$SPLFRAME
 70
     0
  9
$SPLINETYPE
 70
     6
  9
$SPLINESEGS
 70
     8
  9
$HANDSEED
  5
18B
  9
$SURFTAB1
 70
     6
  9
$SURFTAB2
 70
     6
  9
$SURFTYPE
 70
     6
  9
$SURFU
 70
     6
  9
$SURFV
 70
     6
  9
$UCSBASE
  2

  9
$UCSNAME
  2

  9
$UCSORG
 10
0.0
 20
0.0
 30
0.0
  9
$UCSXDIR
 10
1.0
 20
0.0
 30
0.0
  9
$UCSYDIR
 10
0.0
 20
1.0
 30
0.0
  9
$UCSORTHOREF
  2

  9
$UCSORTHOVIEW
 70
     0
  9
$UCSORGTOP
 10
0.0
 20
0.0
 30
0.0
  9
$UCSORGBOTTOM
 10
0.0
 20
0.0
 30
0.0
  9
$UCSORGLEFT
 10
0.0
 20
0.0
 30
0.0
  9
$UCSORGRIGHT
 10
0.0
 20
0.0
 30
0.0
  9
$UCSORGFRONT
 10
0.0
 20
0.0
 30
0.0
  9
$UCSORGBACK
 10
0.0
 20
0.0
 30
0.0
  9
$PUCSBASE
  2

  9
$PUCSNAME
  2

  9
$PUCSORG
 10
0.0
 20
0.0
 30
0.0
  9
$PUCSXDIR
 10
1.0
 20
0.0
 30
0.0
  9
$PUCSYDIR
 10
0.0
 20
1.0
 30
0.0
  9
$PUCSORTHOREF
  2

  9
$PUCSORTHOVIEW
 70
     0
  9
$PUCSORGTOP
 10
0.0
 20
0.0
 30
0.0
  9
$PUCSORGBOTTOM
 10
0.0
 20
0.0
 30
0.0
  9
$PUCSORGLEFT
 10
0.0
 20
0.0
 30
0.0
  9
$PUCSORGRIGHT
 10
0.0
 20
0.0
 30
0.0
  9
$PUCSORGFRONT
 10
0.0
 20
0.0
 30
0.0
  9
$PUCSORGBACK
 10
0.0
 20
0.0
 30
0.0
  9
$USERI1
 70
     0
  9
$USERI2
 70
     0
  9
$USERI3
 70
     0
  9
$USERI4
 70
     0
  9
$USERI5
 70
     0
  9
$USERR1
 40
0.0
  9
$USERR2
 40
0.0
  9
$USERR3
 40
0.0
  9
$USERR4
 40
0.0
  9
$USERR5
 40
0.0
  9
$WORLDVIEW
 70
     1
  9
$SHADEDGE
 70
     3
  9
$SHADEDIF
 70
    70
  9
$TILEMODE
 70
     1
  9
$MAXACTVP
 70
    64
  9
$PINSBASE
 10
0.0
 20
0.0
 30
0.0
  9
$PLIMCHECK
 70
     0
  9
$PEXTMIN
 10
1.0000000000E+20
 20
1.0000000000E+20
 30
1.0000000000E+20
  9
$PEXTMAX
 10
-1.0000000000E+20
 20
-1.0000000000E+20
 30
-1.0000000000E+20
  9
$PLIMMIN
 10
0.0
 20
0.0
  9
$PLIMMAX
 10
420.0
 20
297.0
  9
$UNITMODE
 70
     0
  9
$VISRETAIN
 70
     1
  9
$PLINEGEN
 70
     0
  9
$PSLTSCALE
 70
     1
  9
$TREEDEPTH
 70
  3020
  9
$CMLSTYLE
  2
Standard
  9
$CMLJUST
 70
     0
  9
$CMLSCALE
 40
20.0
  9
$PROXYGRAPHICS
 70
     1
  9
$MEASUREMENT
 70
     1
  9
$CELWEIGHT
370
    -1
  9
$ENDCAPS
280
     0
  9
$JOINSTYLE
280
     0
  9
$LWDISPLAY
290
     1
  9
$INSUNITS
 70
     4
  9
$HYPERLINKBASE
  1

  9
$STYLESHEET
  1

  9
$XEDIT
290
     1
  9
$CEPSNTYPE
380
     0
  9
$PSTYLEMODE
290
     1
  9
$FINGERPRINTGUID
  2
{21dbd4b3-22be-4031-aad5-b1cdd7d863ef}
  9
$VERSIONGUID
  2
{FAEB1C32-E019-11D5-929B-00C0DF256EC4}
  9
$EXTNAMES
290
     1
  9
$PSVPSCALE
 40
0.0
  9
$OLESTARTUP
290
     0
  9
$SORTENTS
280
   127
  9
$INDEXCTL
280
     0
  9
$HIDETEXT
280
     1
  9
$XCLIPFRAME
280
     2
  9
$HALOGAP
280
     0
  9
$OBSCOLOR
 70
   257
  9
$OBSLTYPE
280
     0
  9
$INTERSECTIONDISPLAY
280
     0
  9
$INTERSECTIONCOLOR
 70
   257
  9
$DIMASSOC
280
     2
  9
$PROJECTNAME
  1

  9
$CAMERADISPLAY
290
     0
  9
$LENSLENGTH
 40
50.0
  9
$CAMERAHEIGHT
 40
0.0
  9
$STEPSPERSEC
 40
2.0
  9
$STEPSIZE
 40
6.0
  9
$3DDWFPREC
 40
2.0
  9
$PSOLWIDTH
 40
5.0
  9
$PSOLHEIGHT
 40
80.0
  9
$LOFTANG1
 40
1.5707963268
  9
$LOFTANG2
 40
1.5707963268
  9
$LOFTMAG1
 40
0.0
  9
$LOFTMAG2
 40
0.0
  9
$LOFTPARAM
 70
     7
  9
$LOFTNORMALS
280
     1
  9
$LATITUDE
 40
37.795
  9
$LONGITUDE
 40
-122.394
  9
$NORTHDIRECTION
 40
0.0
  9
$TIMEZONE
 70
 -8000
  9
$LIGHTGLYPHDISPLAY
280
     1
  9
$TILEMODELIGHTSYNCH
280
     1
  9
$CMATERIAL
347
44
  9
$SOLIDHIST
280
     0
  9
$SHOWHIST
280
     1
  9
$DWFFRAME
280
     2
  9
$DGNFRAME
280
     2
  9
$REALWORLDSCALE
290
     1
  9
$INTERFERECOLOR
 62
   256
  9
$CSHADOW
280
     0
  9
$SHADOWPLANELOCATION
 40
0.0
  0
ENDSEC
  0
SECTION
  2
CLASSES
  0
CLASS
  1
ACDBDICTIONARYWDFLT
  2
AcDbDictionaryWithDefault
  3
ObjectDBX Classes
 90
        0
 91
        3
280
     0
281
     0
  0
CLASS
  1
VISUALSTYLE
  2
AcDbVisualStyle
  3
ObjectDBX Classes
 90
     4095
 91
        3
280
     0
281
     0
  0
CLASS
  1
MATERIAL
  2
AcDbMaterial
  3
ObjectDBX Classes
 90
     1153
 91
        3
280
     0
281
     0
  0
CLASS
  1
SCALE
  2
AcDbScale
  3
ObjectDBX Classes
 90
     1153
 91
        3
280
     0
281
     0
  0
CLASS
  1
TABLESTYLE
  2
AcDbTableStyle
  3
ObjectDBX Classes
 90
     4095
 91
        3
280
     0
281
     0
  0
CLASS
  1
MLEADERSTYLE
  2
AcDbMLeaderStyle
  3
ACDB_MLEADERSTYLE_CLASS
 90
     4095
 91
        3
280
     0
281
     0
  0
CLASS
  1
SUN
  2
AcDbSun
  3
SCENEOE
 90
     1153
 91
        3
280
     0
281
     0
  0
CLASS
  1
DICTIONARYVAR
  2
AcDbDictionaryVar
  3
ObjectDBX Classes
 90
        0
 91
        3
280
     0
281
     0
  0
CLASS
  1
CELLSTYLEMAP
  2
AcDbCellStyleMap
  3
ObjectDBX Classes
 90
     1152
 91
        3
280
     0
281
     0
  0
ENDSEC
  0
SECTION
  2
TABLES
  0
TABLE
  2
VPORT
  5
8
330
0
100
AcDbSymbolTable
 70
     1
  0
VPORT
  5
29
330
8
100
AcDbSymbolTableRecord
100
AcDbViewportTableRecord
  2
*Active
 70
     0
 10
0.0
 20
0.0
 11
1.0
 21
1.0
 12
320.0
 22
160.0
 13
0.0
 23
0.0
 14
10.0
 24
10.0
 15
10.0
 25
10.0
 16
0.0
 26
0.0
 36
1.0
 17
0.0
 27
0.0
 37
0.0
 40
320.0
 41
2.0
 42
50.0
 43
0.0
 44
0.0
 50
0.0
 51
0.0
 71
     0
 72
  2000
 73
     1
 74
     3
 75
     0
 76
     0
 77
     0
 78
     0
281
     0
 65
     1
110
0.0
120
0.0
130
0.0
111
1.0
121
0.0
131
0.0
112
0.0
122
1.0
132
0.0
 79
     0
146
0.0
348
2F
 60
     3
 61
     5
292
     1
282
     1
141
0.0
142
0.0
 63
   250
361
6D
  0
ENDTAB
  0
TABLE
  2
LTYPE
  5
5
330
0
100
AcDbSymbolTable
 70
     8
  0
LTYPE
  5
14
330
5
100
AcDbSymbolTableRecord
100
AcDbLinetypeTableRecord
  2
ByBlock
 70
     0
  3

 72
    65
 73
     0
 40
0.0
  0
LTYPE
  5
15
330
5
100
AcDbSymbolTableRecord
100
AcDbLinetypeTableRecord
  2
ByLayer
 70
     0
  3

 72
    65
 73
     0
 40
0.0
  0
LTYPE
  5
16
330
5
100
AcDbSymbolTableRecord
100
AcDbLinetypeTableRecord
  2
Continuous
 70
     0
  3
Solid line
 72
    65
 73
     0
 40
0.0
  0
LTYPE
  5
6E
330
5
100
AcDbSymbolTableRecord
100
AcDbLinetypeTableRecord
  2
SLD-Continua
 70
     0
  3
SolidWorks Line Style
 72
    65
 73
     0
 40
0.0
  0
LTYPE
  5
6F
330
5
100
AcDbSymbolTableRecord
100
AcDbLinetypeTableRecord
  2
SLD-Discontinua
 70
     0
  3
SolidWorks Line Style
 72
    65
 73
     2
 40
1.905
 49
1.27
 74
     0
 49
-0.635
 74
     0
  0
LTYPE
  5
70
330
5
100
AcDbSymbolTableRecord
100
AcDbLinetypeTableRecord
  2
SLD-Centrada-doble
 70
     0
  3
SolidWorks Line Style
 72
    65
 73
     6
 40
12.7
 49
6.35
 74
     0
 49
-1.27
 74
     0
 49
1.27
 74
     0
 49
-1.27
 74
     0
 49
1.27
 74
     0
 49
-1.27
 74
     0
  0
LTYPE
  5
71
330
5
100
AcDbSymbolTableRecord
100
AcDbLinetypeTableRecord
  2
SLD-Centrada-simple
 70
     0
  3
SolidWorks Line Style
 72
    65
 73
     4
 40
10.16
 49
6.35
 74
     0
 49
-1.27
 74
     0
 49
1.27
 74
     0
 49
-1.27
 74
     0
  0
LTYPE
  5
72
330
5
100
AcDbSymbolTableRecord
100
AcDbLinetypeTableRecord
  2
SLD-Centrada-trazos-largos
 70
     0
  3
SolidWorks Line Style
 72
    65
 73
     4
 40
19.05
 49
15.24
 74
     0
 49
-1.27
 74
     0
 49
1.27
 74
     0
 49
-1.27
 74
     0
  0
LTYPE
  5
73
330
5
100
AcDbSymbolTableRecord
100
AcDbLinetypeTableRecord
  2
SLD-Puntos
 70
     0
  3
SolidWorks Line Style
 72
    65
 73
     2
 40
0.635
 49
0.0
 74
     0
 49
-0.635
 74
     0
  0
LTYPE
  5
74
330
5
100
AcDbSymbolTableRecord
100
AcDbLinetypeTableRecord
  2
SLD-Delgada-Gruesa
 70
     0
  3
SolidWorks Line Style
 72
    65
 73
     4
 40
10.16
 49
6.35
 74
     0
 49
-1.27
 74
     0
 49
1.27
 74
     0
 49
-1.27
 74
     0
  0
ENDTAB
  0
TABLE
  2
LAYER
  5
2
330
0
100
AcDbSymbolTable
 70
     8
  0
LAYER
  5
10
330
2
100
AcDbSymbolTableRecord
100
AcDbLayerTableRecord
  2
0
 70
     0
 62
     7
  6
Continuous
370
    -3
390
F
347
46
348
0
  0
LAYER
  5
75
330
2
100
AcDbSymbolTableRecord
100
AcDbLayerTableRecord
  2
SLD-0
 70
     0
 62
     7
  6
SLD-Continua
370
    -3
390
F
347
46
348
0
  0
LAYER
  5
76
330
2
100
AcDbSymbolTableRecord
100
AcDbLayerTableRecord
  2
A4
 70
     0
 62
     7
  6
SLD-Continua
370
    -3
390
F
347
46
348
0
  0
LAYER
  5
77
330
2
100
AcDbSymbolTableRecord
100
AcDbLayerTableRecord
  2
EJES
 70
     0
 62
     1
  6
SLD-Centrada-trazos-largos
370
    -3
390
F
347
46
348
0
  0
LAYER
  5
78
330
2
100
AcDbSymbolTableRecord
100
AcDbLayerTableRecord
  2
SLD-DEFPOINTS
 70
     0
 62
     7
  6
SLD-Continua
370
    -3
390
F
347
46
348
0
  0
LAYER
  5
79
330
2
100
AcDbSymbolTableRecord
100
AcDbLayerTableRecord
  2
FORMAT
 70
     0
 62
     7
  6
SLD-Continua
370
    -3
390
F
347
46
348
0
  0
LAYER
  5
7A
330
2
100
AcDbSymbolTableRecord
100
AcDbLayerTableRecord
  2
A3
 70
     0
 62
     7
  6
SLD-Continua
370
    -3
390
F
347
46
348
0
  0
LAYER
  5
7B
330
2
100
AcDbSymbolTableRecord
100
AcDbLayerTableRecord
  2
1
 70
     0
 62
   179
  6
SLD-Continua
370
    -3
390
F
347
46
348
0
  0
ENDTAB
  0
TABLE
  2
STYLE
  5
3
330
0
100
AcDbSymbolTable
 70
     3
  0
STYLE
  5
11
330
3
100
AcDbSymbolTableRecord
100
AcDbTextStyleTableRecord
  2
STANDARD
 70
     0
 40
0.0
 41
1.0
 50
0.0
 71
     0
 42
16.9333333333
  3
ARIAL.TTF
  4

1001
ACAD
1000
ARIAL
1071
       34
  0
STYLE
  5
7C
330
3
100
AcDbSymbolTableRecord
100
AcDbTextStyleTableRecord
  2
SLDTEXTSTYLE0
 70
     0
 40
0.0
 41
1.0
 50
0.0
 71
     0
 42
2.5
  3
ARIBLK.TTF
  4

1001
ACAD
1000
Arial Black
1071
      290
  0
STYLE
  5
82
330
3
100
AcDbSymbolTableRecord
100
AcDbTextStyleTableRecord
  2
SLDTEXTSTYLE1
 70
     0
 40
0.0
 41
0.948
 50
0.0
 71
     0
 42
16.9333333333
  3
ARIAL.TTF
  4

1001
ACAD
1000
Arial
1071
      290
  0
ENDTAB
  0
TABLE
  2
VIEW
  5
6
330
0
100
AcDbSymbolTable
 70
     0
  0
ENDTAB
  0
TABLE
  2
UCS
  5
7
330
0
100
AcDbSymbolTable
 70
     0
  0
ENDTAB
  0
TABLE
  2
APPID
  5
9
330
0
100
AcDbSymbolTable
 70
     1
  0
APPID
  5
12
330
9
100
AcDbSymbolTableRecord
100
AcDbRegAppTableRecord
  2
ACAD
 70
     0
  0
ENDTAB
  0
TABLE
  2
DIMSTYLE
  5
A
330
0
100
AcDbSymbolTable
 70
     2
100
AcDbDimStyleTable
  0
DIMSTYLE
105
27
330
A
100
AcDbSymbolTableRecord
100
AcDbDimStyleTableRecord
  2
ISO-25
 70
     0
 41
2.5
 42
0.625
 43
3.75
 44
1.25
 73
     0
 74
     0
 77
     1
 78
     8
140
2.5
141
2.5
143
0.0393700787
147
0.625
171
     3
172
     1
178
     0
271
     2
272
     2
274
     3
278
    44
283
     0
284
     8
340
7C
  0
DIMSTYLE
105
11B
102
{ACAD_REACTORS
330
11A
330
15C
330
175
102
}
330
A
100
AcDbSymbolTableRecord
100
AcDbDimStyleTableRecord
  2
SLDDIMSTYLE0
 70
     0
 41
16.0
 44
0.0
 45
0.000000001
 78
    12
 79
     3
140
16.1616319444
147
4.0404079861
173
     1
178
     0
271
     2
272
     2
276
     2
284
    12
340
7C
  0
ENDTAB
  0
TABLE
  2
BLOCK_RECORD
  5
1
330
0
100
AcDbSymbolTable
 70
     4
  0
BLOCK_RECORD
  5
1F
330
1
100
AcDbSymbolTableRecord
100
AcDbBlockTableRecord
  2
*Model_Space
340
22
 70
     0
280
     1
281
     0
  0
BLOCK_RECORD
  5
1B
330
1
100
AcDbSymbolTableRecord
100
AcDbBlockTableRecord
  2
*Paper_Space
340
1E
 70
     0
280
     1
281
     0
  0
BLOCK_RECORD
  5
23
330
1
100
AcDbSymbolTableRecord
100
AcDbBlockTableRecord
  2
*Paper_Space0
340
26
 70
     0
280
     1
281
     0
  0
BLOCK_RECORD
  5
11C
330
1
100
AcDbSymbolTableRecord
100
AcDbBlockTableRecord
  2
_D
340
0
 70
     0
280
     1
281
     0
  0
BLOCK_RECORD
  5
15D
330
1
100
AcDbSymbolTableRecord
100
AcDbBlockTableRecord
  2
_D_1
340
0
 70
     0
280
     1
281
     0
  0
BLOCK_RECORD
  5
176
330
1
100
AcDbSymbolTableRecord
100
AcDbBlockTableRecord
  2
_D_2
340
0
 70
     0
280
     1
281
     0
  0
ENDTAB
  0
ENDSEC
  0
SECTION
  2
BLOCKS
  0
BLOCK
  5
20
330
1F
100
AcDbEntity
  8
0
100
AcDbBlockBegin
  2
*Model_Space
 70
     0
 10
0.0
 20
0.0
 30
0.0
  3
*Model_Space
  1

  0
ENDBLK
  5
21
330
1F
100
AcDbEntity
  8
0
100
AcDbBlockEnd
  0
BLOCK
  5
1C
330
1B
100
AcDbEntity
 67
     1
  8
0
100
AcDbBlockBegin
  2
*Paper_Space
 70
     0
 10
0.0
 20
0.0
 30
0.0
  3
*Paper_Space
  1

  0
ENDBLK
  5
1D
330
1B
100
AcDbEntity
 67
     1
  8
0
100
AcDbBlockEnd
  0
BLOCK
  5
24
330
23
100
AcDbEntity
  8
0
100
AcDbBlockBegin
  2
*Paper_Space0
 70
     0
 10
0.0
 20
0.0
 30
0.0
  3
*Paper_Space0
  1

  0
ENDBLK
  5
25
330
23
100
AcDbEntity
  8
0
100
AcDbBlockEnd
  0
BLOCK
  5
11D
330
11C
100
AcDbEntity
  8
0
100
AcDbBlockBegin
  2
_D
 70
     0
 10
0.0
 20
0.0
 30
0.0
  3
_D
  1

  0
SOLID
  5
11F
330
11C
100
AcDbEntity
  8
1
100
AcDbTrace
 10
321.6307465333
 20
271.8327554443
 30
0.0
 11
337.6307465333
 21
267.8327554443
 31
0.0
 12
337.6307465333
 22
275.8327554443
 32
0.0
 13
337.6307465333
 23
275.8327554443
 33
0.0
  0
SOLID
  5
120
330
11C
100
AcDbEntity
  8
1
100
AcDbTrace
 10
503.6307465333
 20
271.8327554443
 30
0.0
 11
487.6307465333
 21
275.8327554443
 31
0.0
 12
487.6307465333
 22
267.8327554443
 32
0.0
 13
487.6307465333
 23
267.8327554443
 33
0.0
  0
LINE
  5
121
330
11C
100
AcDbEntity
  8
1
100
AcDbLine
 10
321.6307465333
 20
255.9359011429
 30
0.0
 11
321.6307465333
 21
279.8327554443
 31
0.0
  0
LINE
  5
122
330
11C
100
AcDbEntity
  8
1
100
AcDbLine
 10
503.6307465333
 20
255.9359011429
 30
0.0
 11
503.6307465333
 21
279.8327554443
 31
0.0
  0
LINE
  5
123
330
11C
100
AcDbEntity
  8
1
100
AcDbLine
 10
321.6307465333
 20
271.8327554443
 30
0.0
 11
503.6307465333
 21
271.8327554443
 31
0.0
  0
MTEXT
  5
124
330
11C
100
AcDbEntity
  8
1
100
AcDbMText
 10
390.0529690283
 20
293.779096552
 30
0.0
 40
16.9333333333
 41
0.0
 46
0.0
 71
     1
 72
     1
  1
182
  7
SLDTEXTSTYLE0
 73
     1
 44
1.0
  0
ENDBLK
  5
11E
330
11C
100
AcDbEntity
  8
0
100
AcDbBlockEnd
  0
BLOCK
  5
15E
330
15D
100
AcDbEntity
  8
0
100
AcDbBlockBegin
  2
_D_1
 70
     0
 10
0.0
 20
0.0
 30
0.0
  3
_D_1
  1

  0
SOLID
  5
160
330
15D
100
AcDbEntity
  8
1
100
AcDbTrace
 10
523.3645087033
 20
163.4010525812
 30
0.0
 11
527.3645087033
 21
179.4010525812
 31
0.0
 12
519.3645087033
 22
179.4010525812
 32
0.0
 13
519.3645087033
 23
179.4010525812
 33
0.0
  0
SOLID
  5
161
330
15D
100
AcDbEntity
  8
1
100
AcDbTrace
 10
523.3645087033
 20
253.4010525812
 30
0.0
 11
519.3645087033
 21
237.4010525812
 31
0.0
 12
527.3645087033
 22
237.4010525812
 32
0.0
 13
527.3645087033
 23
237.4010525812
 33
0.0
  0
LINE
  5
162
330
15D
100
AcDbEntity
  8
1
100
AcDbLine
 10
539.4947572197
 20
163.4010525812
 30
0.0
 11
515.3645087033
 21
163.4010525812
 31
0.0
  0
LINE
  5
163
330
15D
100
AcDbEntity
  8
1
100
AcDbLine
 10
542.4947572197
 20
253.4010525812
 30
0.0
 11
515.3645087033
 21
253.4010525812
 31
0.0
  0
LINE
  5
164
330
15D
100
AcDbEntity
  8
1
100
AcDbLine
 10
523.3645087033
 20
163.4010525812
 30
0.0
 11
523.3645087033
 21
192.4868545701
 31
0.0
  0
LINE
  5
165
330
15D
100
AcDbEntity
  8
1
100
AcDbLine
 10
523.3645087033
 20
253.4010525812
 30
0.0
 11
523.3645087033
 21
224.3152505924
 31
0.0
  0
MTEXT
  5
166
330
15D
100
AcDbEntity
  8
1
100
AcDbMText
 10
508.3126567229
 20
214.4331956778
 30
0.0
 40
16.9333333333
 41
0.0
 46
0.0
 71
     1
 72
     1
  1
90
  7
SLDTEXTSTYLE0
 73
     1
 44
1.0
  0
ENDBLK
  5
15F
330
15D
100
AcDbEntity
  8
0
100
AcDbBlockEnd
  0
BLOCK
  5
177
330
176
100
AcDbEntity
  8
0
100
AcDbBlockBegin
  2
_D_2
 70
     0
 10
0.0
 20
0.0
 30
0.0
  3
_D_2
  1

  0
SOLID
  5
179
330
176
100
AcDbEntity
  8
1
100
AcDbTrace
 10
537.152942811
 20
113.4256366692
 30
0.0
 11
533.152942811
 21
97.4256366692
 31
0.0
 12
541.152942811
 22
97.4256366692
 32
0.0
 13
541.152942811
 23
97.4256366692
 33
0.0
  0
SOLID
  5
17A
330
176
100
AcDbEntity
  8
1
100
AcDbTrace
 10
537.152942811
 20
18.4256366692
 30
0.0
 11
541.152942811
 21
34.4256366692
 31
0.0
 12
533.152942811
 22
34.4256366692
 32
0.0
 13
533.152942811
 23
34.4256366692
 33
0.0
  0
LINE
  5
17B
330
176
100
AcDbEntity
  8
1
100
AcDbLine
 10
507.6307465333
 20
113.4256366692
 30
0.0
 11
545.152942811
 21
113.4256366692
 31
0.0
  0
LINE
  5
17C
330
176
100
AcDbEntity
  8
1
100
AcDbLine
 10
482.6307465333
 20
18.4256366692
 30
0.0
 11
545.152942811
 21
18.4256366692
 31
0.0
  0
LINE
  5
17D
330
176
100
AcDbEntity
  8
1
100
AcDbLine
 10
537.152942811
 20
113.4256366692
 30
0.0
 11
537.152942811
 21
81.8398346803
 31
0.0
  0
LINE
  5
17E
330
176
100
AcDbEntity
  8
1
100
AcDbLine
 10
537.152942811
 20
18.4256366692
 30
0.0
 11
537.152942811
 21
50.011438658
 31
0.0
  0
MTEXT
  5
17F
330
176
100
AcDbEntity
  8
1
100
AcDbMText
 10
522.1010908306
 20
71.9577797658
 30
0.0
 40
16.9333333333
 41
0.0
 46
0.0
 71
     1
 72
     1
  1
95
  7
SLDTEXTSTYLE0
 73
     1
 44
1.0
  0
ENDBLK
  5
178
330
176
100
AcDbEntity
  8
0
100
AcDbBlockEnd
  0
ENDSEC
  0
SECTION
  2
ENTITIES
  0
LINE
  5
7D
330
1F
100
AcDbEntity
  8
1
370
    18
100
AcDbLine
 10
320.0
 20
320.0
 30
0.0
 11
320.0
 21
0.0
 31
0.0
  0
LINE
  5
7E
330
1F
100
AcDbEntity
  8
1
370
    18
100
AcDbLine
 10
0.0
 20
320.0
 30
0.0
 11
640.0
 21
320.0
 31
0.0
  0
LINE
  5
7F
330
1F
100
AcDbEntity
  8
1
370
    18
100
AcDbLine
 10
0.0
 20
320.0
 30
0.0
 11
0.0
 21
0.0
 31
0.0
  0
LINE
  5
80
330
1F
100
AcDbEntity
  8
1
370
    18
100
AcDbLine
 10
0.0
 20
0.0
 30
0.0
 11
640.0
 21
0.0
 31
0.0
  0
LINE
  5
81
330
1F
100
AcDbEntity
  8
1
370
    18
100
AcDbLine
 10
640.0
 20
320.0
 30
0.0
 11
640.0
 21
0.0
 31
0.0
  0
MTEXT
  5
83
330
1F
100
AcDbEntity
  8
1
 62
     7
100
AcDbMText
 10
12.8957264957
 20
303.8070579356
 30
0.0
 40
12.7
 41
0.0
 46
0.0
 71
     1
 72
     1
  1
TPR65
  7
SLDTEXTSTYLE1
 73
     1
 44
1.0
  0
LWPOLYLINE
  5
84
330
1F
100
AcDbEntity
  8
0
  6
SLD-Continua
 62
     7
370
    25
100
AcDbPolyline
 90
       83
 70
   128
 43
0.0
 10
80.9298974776
 20
119.5604526941
 10
80.8513613478
 20
119.5448904522
 10
80.4792037777
 20
119.4489049418
 10
80.1125291706
 20
119.3318297914
 10
79.7518346201
 20
119.193843746
 10
79.3975890284
 20
119.0351281201
 10
79.0502616929
 20
118.8558751965
 10
78.7103263692
 20
118.6562929681
 10
78.378263806
 20
118.4366110287
 10
78.0545625121
 20
118.1970869695
 10
77.7397176958
 20
117.9380125906
 10
77.4342285106
 20
117.6597192716
 10
77.1385939187
 20
117.3625819613
 10
76.8533076203
 20
117.0470214377
 10
76.5788525707
 20
116.7135047112
 10
76.3156956015
 20
116.362543675
 10
76.0642825926
 20
115.9946922922
 10
75.8250345122
 20
115.6105427297
 10
75.5983444982
 20
115.2107208942
 10
75.3845760071
 20
114.7958817963
 10
75.1840619443
 20
114.3667050938
 10
74.9971046108
 20
113.9238910589
 10
74.8239762648
 20
113.4681571079
 10
74.6649200962
 20
113.0002349398
 10
74.5201514309
 20
112.5208682606
 10
74.389859018
 20
112.0308110214
 10
74.2742091134
 20
111.5308392287
 10
74.173339508
 20
111.0217224803
 10
74.0873648866
 20
110.5042360381
 10
74.0163780805
 20
109.9791617746
 10
73.9604507343
 20
109.4472876596
 10
73.9196338322
 20
108.9094072574
 10
73.8939581071
 20
108.3663192047
 10
73.8834343541
 20
107.8188266461
 10
73.8880536704
 20
107.2677366148
 10
73.9077876434
 20
106.7138593557
 10
73.9425885055
 20
106.158007587
 10
73.9923892698
 20
105.6009957057
 10
74.0571038621
 20
105.0436389431
 10
74.136627257
 20
104.4867524747
 10
74.2308356287
 20
103.9311504971
 10
74.3395865212
 20
103.3776452761
 10
74.4627190411
 20
102.8270461783
 10
74.6000536674
 20
102.2801602382
 10
74.7513918974
 20
101.7377924842
 10
74.9165185169
 20
101.2007374584
 10
75.0952009473
 20
100.6697828174
 10
75.2871895678
 20
100.1457084092
 10
75.4922180497
 20
99.6292853821
 10
75.7100036966
 20
99.121275334
 10
75.9402477815
 20
98.6224295078
 10
76.1826358666
 20
98.1334880393
 10
76.4368380953
 20
97.6551792608
 10
76.7025094367
 20
97.1882190621
 10
76.9792898667
 20
96.7333103079
 10
77.2668044618
 20
96.2911423055
 10
77.5646633854
 20
95.8623903122
 10
77.8724617409
 20
95.4477150652
 10
78.1897792701
 20
95.0477623065
 10
78.5161798768
 20
94.6631622667
 10
78.8512109621
 20
94.2945290598
 10
79.1943952168
 20
93.9424672061
 10
79.5452367763
 20
93.6075614736
 10
79.9032238023
 20
93.2903725279
 10
80.2678234378
 20
92.9914395622
 10
80.6384808113
 20
92.7112779549
 10
81.0146183291
 20
92.4503763806
 10
81.3956354578
 20
92.2091933674
 10
81.7809092263
 20
91.9881533637
 10
82.1697956723
 20
91.7876424574
 10
82.5616324212
 20
91.6080039969
 10
82.9557424986
 20
91.4495344567
 10
83.3514393488
 20
91.3124799656
 10
83.7480328684
 20
91.1970339409
 10
84.1448360926
 20
91.1033362306
 10
84.5411720253
 20
91.0314740452
 10
84.9363800193
 20
90.9814847751
 10
85.3298211092
 20
90.953360562
 10
85.7208817956
 20
90.9470542635
 10
86.1089759391
 20
90.9624862659
 10
86.4935446416
 20
90.9995514813
 10
86.8740542067
 20
91.0581258434
 10
87.0973267475
 20
91.1056062673
  0
LINE
  5
85
330
1F
100
AcDbEntity
  8
0
  6
SLD-Continua
 62
     7
370
    25
100
AcDbLine
 10
87.0879182829
 20
91.1008655917
 30
0.0
 11
90.0695895246
 21
91.746878238
 31
0.0
  0
LINE
  5
86
330
1F
100
AcDbEntity
  8
0
  6
SLD-Continua
 62
     7
370
    25
100
AcDbLine
 10
83.903479049
 20
120.2065599228
 30
0.0
 11
80.9218078074
 21
119.5605472765
 31
0.0
  0
LINE
  5
87
330
1F
100
AcDbEntity
  8
0
  6
SLD-Continua
 62
     7
370
    25
100
AcDbLine
 10
91.420910576
 20
92.2033694607
 30
0.0
 11
286.5796191889
 21
134.4867010488
 31
0.0
  0
LINE
  5
88
330
1F
100
AcDbEntity
  8
0
  6
SLD-Continua
 62
     7
370
    25
100
AcDbLine
 10
280.4812681691
 20
162.6336389789
 30
0.0
 11
85.3225595563
 21
120.3503073908
 31
0.0
  0
LINE
  5
89
330
1F
100
AcDbEntity
  8
0
  6
SLD-Continua
 62
     7
370
    25
100
AcDbLine
 10
231.4204037607
 20
257.6249964557
 30
0.0
 11
17.2228498123
 21
211.21668466
 31
0.0
  0
LINE
  5
8A
330
1F
100
AcDbEntity
  8
0
  6
SLD-Continua
 62
     7
370
    25
100
AcDbLine
 10
38.5613769708
 20
79.8159425521
 30
0.0
 11
40.1872566429
 21
79.4033771874
 31
0.0
  0
LINE
  5
8B
330
1F
100
AcDbEntity
  8
0
  6
SLD-Continua
 62
     7
370
    25
100
AcDbLine
 10
315.6347612157
 20
230.4969500999
 30
0.0
 11
315.6328557487
 21
232.8300798035
 31
0.0
  0
LINE
  5
8C
330
1F
100
AcDbEntity
  8
0
  6
SLD-Continua
 62
     7
370
    25
100
AcDbLine
 10
287.4297281487
 20
131.3987404643
 30
0.0
 11
292.3189955191
 21
132.5773832159
 31
0.0
  0
LINE
  5
8D
330
1F
100
AcDbEntity
  8
0
  6
SLD-Continua
 62
     7
370
    25
100
AcDbLine
 10
284.9157135187
 20
166.7472298298
 30
0.0
 11
279.9770570969
 21
165.7965422353
 31
0.0
  0
LWPOLYLINE
  5
8E
330
1F
100
AcDbEntity
  8
0
  6
SLD-Continua
 62
     7
370
    25
100
AcDbPolyline
 90
       63
 70
   128
 43
0.0
 10
292.3268478396
 20
132.5811535981
 10
292.655349584
 20
132.6657902963
 10
293.0665760561
 20
132.7942377411
 10
293.4717898418
 20
132.943582526
 10
293.8705698614
 20
133.1136637456
 10
294.2624946781
 20
133.304318267
 10
294.6471386075
 20
133.5153771731
 10
295.0240686192
 20
133.7466610153
 10
295.3928422596
 20
133.9979741601
 10
295.7530067785
 20
134.2690986017
 10
296.1040995853
 20
134.559787681
 10
296.4456500657
 20
134.8697601938
 10
296.7771826833
 20
135.1986953628
 10
297.0982211702
 20
135.5462290909
 10
297.408293504
 20
135.9119517979
 10
297.7069372928
 20
136.2954079897
 10
297.9937051561
 20
136.6960975319
 10
298.2681697096
 20
137.113478437
 10
298.5299278305
 20
137.5469708421
 10
298.7786039799
 20
137.9959617747
 10
299.0138524772
 20
138.4598102866
 10
299.2353587345
 20
138.937852571
 10
299.4428395483
 20
139.4294067508
 10
299.6360426112
 20
139.9337771209
 10
299.8147454351
 20
140.4502577232
 10
299.9787538797
 20
140.978135219
 10
300.1279004654
 20
141.5166910888
 10
300.2620411319
 20
142.0651967493
 10
300.3810542033
 20
142.6229130788
 10
300.4848443698
 20
143.1891175156
 10
300.5733359273
 20
143.7630860378
 10
300.6464715975
 20
144.3440933156
 10
300.7042115425
 20
144.9314127658
 10
300.7465325609
 20
145.5243165716
 10
300.7734274446
 20
146.1220757082
 10
300.7849044724
 20
146.723960005
 10
300.7809870164
 20
147.3292382598
 10
300.7617132371
 20
147.9371784174
 10
300.7271358462
 20
148.5470478149
 10
300.6773219184
 20
149.1581134941
 10
300.6123527356
 20
149.7696425754
 10
300.5323236501
 20
150.3809026879
 10
300.4373439564
 20
150.991162447
 10
300.3275367635
 20
151.5996919711
 10
300.2030388607
 20
152.205763427
 10
300.0640005737
 20
152.8086515961
 10
299.9105869986
 20
153.4076292869
 10
299.7429766316
 20
154.0019742707
 10
299.5613600294
 20
154.5909730459
 10
299.3659405352
 20
155.1739171524
 10
299.156934077
 20
155.750103694
 10
298.9345689718
 20
156.3188358303
 10
298.6990857421
 20
156.8794232262
 10
298.4507369568
 20
157.431182456
 10
298.1897871097
 20
157.9734373541
 10
297.9165125513
 20
158.5055193111
 10
297.631201492
 20
159.0267675136
 10
297.334154098
 20
159.5365291303
 10
297.0256827016
 20
160.0341594519
 10
296.7061121507
 20
160.519021998
 10
296.3757803221
 20
160.9904886095
 10
296.0350388216
 20
161.4479395578
 10
295.6999733105
 20
161.8714986255
  0
ARC
  5
8F
330
1F
100
AcDbEntity
  8
0
  6
SLD-Continua
 62
     7
370
    25
100
AcDbCircle
 10
286.2893354845
 20
155.4201081628
 30
0.0
 40
11.40966884677443
100
AcDbArc
 50
34.4322869374
 51
96.9195955442
  0
LINE
  5
90
330
1F
100
AcDbEntity
  8
0
  6
SLD-Continua
 62
     7
370
    25
100
AcDbLine
 10
61.2467695638
 20
102.7572811053
 30
0.0
 11
75.6256006169
 21
99.3181552165
 31
0.0
  0
LINE
  5
91
330
1F
100
AcDbEntity
  8
0
  6
SLD-Continua
 62
     7
370
    25
100
AcDbLine
 10
98.7411523252
 20
93.7893822571
 30
0.0
 11
101.5085796894
 21
93.1274695426
 31
0.0
  0
LINE
  5
92
330
1F
100
AcDbEntity
  8
0
  6
SLD-Continua
 62
     7
370
    25
100
AcDbLine
 10
111.1574884725
 20
131.1528734943
 30
0.0
 11
71.1753598178
 21
141.8848823259
 31
0.0
  0
ARC
  5
93
330
1F
100
AcDbEntity
  8
0
  6
SLD-Continua
 62
     7
370
    25
100
AcDbCircle
 10
108.1229721654
 20
120.1063496285
 30
0.0
 40
11.45371654564813
100
AcDbArc
 50
42.4638985624
 51
74.7539067044
  0
ARC
  5
94
330
1F
100
AcDbEntity
  8
0
  6
SLD-Continua
 62
     7
370
    25
100
AcDbCircle
 10
103.9837684266
 20
106.3025022538
 30
0.0
 40
13.40390777110902
100
AcDbArc
 50
259.3749333997
 51
316.1719143117
  0
ARC
  5
95
330
1F
100
AcDbEntity
  8
0
  6
SLD-Continua
 62
     7
370
    25
100
AcDbCircle
 10
116.254185044
 20
127.5512115008
 30
0.0
 40
0.429401824123281
100
AcDbArc
 50
296.1745215891
 51
42.1577472143
  0
LWPOLYLINE
  5
96
330
1F
100
AcDbEntity
  8
0
  6
SLD-Continua
 62
     7
370
    25
100
AcDbPolyline
 90
        3
 70
   128
 43
0.0
 10
116.3123317123
 20
127.0645904542
 10
116.3605166774
 20
127.1070362047
 10
116.4446549677
 20
127.1640633493
  0
LWPOLYLINE
  5
97
330
1F
100
AcDbEntity
  8
0
  6
SLD-Continua
 62
     7
370
    25
100
AcDbPolyline
 90
       40
 70
   128
 43
0.0
 10
54.8732201692
 20
83.7911970546
 10
55.04142996
 20
83.754228723
 10
55.7125025987
 20
83.6290743324
 10
56.3879917257
 20
83.5252657841
 10
57.0675523948
 20
83.4428565677
 10
57.7508375989
 20
83.3818924022
 10
58.4374977864
 20
83.3424111036
 10
59.1271804091
 20
83.324442343
 10
59.8195295212
 20
83.3280073051
 10
60.5141854472
 20
83.3531182601
 10
61.2107845356
 20
83.3997780668
 10
61.90895901
 20
83.4679796263
 10
62.6083369238
 20
83.5577053069
 10
63.3085422255
 20
83.6689263604
 10
64.0091949311
 20
83.8016023527
 10
64.7099114013
 20
83.9556806252
 10
65.4103047152
 20
84.1310958071
 10
66.1099851277
 20
84.3277693914
 10
66.8085606004
 20
84.5456093854
 10
67.5056373871
 20
84.7845100463
 10
68.2008206604
 20
85.0443517023
 10
68.8937151625
 20
85.3250006641
 10
69.5839258639
 20
85.6263092212
 10
70.2710586165
 20
85.9481157209
 10
70.9547207875
 20
86.2902447208
 10
71.6345218644
 20
86.6525072082
 10
72.3100740215
 20
87.0347008744
 10
72.9809926418
 20
87.4366104357
 10
73.6468967913
 20
87.85800799
 10
74.3074096422
 20
88.2986533991
 10
74.962158846
 20
88.7582946877
 10
75.610776857
 20
89.2366684509
 10
76.2529012093
 20
89.7335002635
 10
76.888174751
 20
90.2485050844
 10
77.5162458385
 20
90.7813876526
 10
78.1367684977
 20
91.3318428698
 10
78.7494025544
 20
91.8995561684
 10
79.35381374
 20
92.4842038624
 10
79.9496737764
 20
93.0854534813
 10
80.0388000455
 20
93.1792144122
  0
LWPOLYLINE
  5
98
330
1F
100
AcDbEntity
  8
0
  6
SLD-Continua
 62
     7
370
    25
100
AcDbPolyline
 90
       45
 70
   128
 43
0.0
 10
93.3891991772
 20
135.9222403103
 10
93.2764859256
 20
136.6703295975
 10
93.1291177255
 20
137.5343077012
 10
92.9657343354
 20
138.3904310534
 10
92.7864110558
 20
139.238230396
 10
92.591232594
 20
140.0772366983
 10
92.3802921541
 20
140.9069863352
 10
92.1536916839
 20
141.7270200355
 10
91.91154211
 20
142.53688241
 10
91.6539634417
 20
143.3361221785
 10
91.38108488
 20
144.1242924105
 10
91.0930449315
 20
144.9009507839
 10
90.789991523
 20
145.6656598632
 10
90.4720821166
 20
146.4179874009
 10
90.1394838203
 20
147.1575066645
 10
89.7923734902
 20
147.8837967906
 10
89.4309378206
 20
148.5964431696
 10
89.0553734154
 20
149.2950378605
 10
88.6658868357
 20
149.9791800384
 10
88.2626946161
 20
150.6484764711
 10
87.8460232441
 20
151.3025420266
 10
87.4161090945
 20
151.9410002049
 10
86.9731983122
 20
152.5634836914
 10
86.5175466383
 20
153.1696349246
 10
86.0494191713
 20
153.7591066699
 10
85.5690900624
 20
154.3315625893
 10
85.0768421395
 20
154.886677796
 10
84.5729664619
 20
155.4241393812
 10
84.0577618057
 20
155.9436468991
 10
83.5315340849
 20
156.4449127971
 10
82.9945957173
 20
156.9276627768
 10
82.4472649427
 20
157.3916360745
 10
81.8898651091
 20
157.8365856493
 10
81.3227239403
 20
158.2622782713
 10
80.7461728027
 20
158.6684945048
 10
80.160545991
 20
159.0550285838
 10
79.5661800489
 20
159.4216881839
 10
78.9634131471
 20
159.7682940948
 10
78.3525845322
 20
160.0946798068
 10
77.734034065
 20
160.4006910228
 10
77.108101859
 20
160.6861851156
 10
76.4751280282
 20
160.951030549
 10
75.8354525499
 20
161.195106287
 10
75.1894152437
 20
161.4183012108
 10
74.6044928493
 20
161.5996934898
  0
LINE
  5
99
330
1F
100
AcDbEntity
  8
0
  6
SLD-Continua
 62
     7
370
    25
100
AcDbLine
 10
42.4577025657
 20
86.6723687893
 30
0.0
 11
54.454032452
 21
83.8821547324
 31
0.0
  0
LINE
  5
9A
330
1F
100
AcDbEntity
  8
0
  6
SLD-Continua
 62
     7
370
    25
100
AcDbLine
 10
74.204072278
 20
161.7151262452
 30
0.0
 11
62.3287740721
 21
164.9823142939
 31
0.0
  0
LWPOLYLINE
  5
9B
330
1F
100
AcDbEntity
  8
0
  6
SLD-Continua
 62
     7
370
    25
100
AcDbPolyline
 90
      151
 70
   128
 43
0.0
 10
92.8002014348
 20
102.8237079276
 10
92.7915129289
 20
103.3894731725
 10
92.7663833645
 20
103.9584216432
 10
92.7248568272
 20
104.5295552106
 10
92.6670061689
 20
105.1018719124
 10
92.5929328791
 20
105.6743677107
 10
92.5027669077
 20
106.2460382533
 10
92.3966664363
 20
106.8158806358
 10
92.2748176012
 20
107.382895161
 10
92.1374341667
 20
107.9460870928
 10
91.9847571501
 20
108.5044684011
 10
91.8170543987
 20
109.0570594955
 10
91.63462012
 20
109.6028909432
 10
91.4377743659
 20
110.1410051706
 10
91.2268624707
 20
110.6704581424
 10
91.0022544454
 20
111.1903210182
 10
90.764344329
 20
111.6996817819
 10
90.5135494965
 20
112.1976468415
 10
90.2503099274
 20
112.6833425972
 10
89.9750874333
 20
113.1559169736
 10
89.6883648479
 20
113.6145409146
 10
89.3906451801
 20
114.058409838
 10
89.0824507315
 20
114.4867450468
 10
88.7643221797
 20
114.8987950957
 10
88.4368176303
 20
115.2938371087
 10
88.1005116376
 20
115.671178048
 10
87.7559941967
 20
116.0301559292
 10
87.4038697081
 20
116.3701409833
 10
87.0447559179
 20
116.690536761
 10
86.6792828336
 20
116.990781179
 10
86.3080916193
 20
117.2703475068
 10
85.9318334705
 20
117.52874529
 10
85.5511684718
 20
117.7655212111
 10
85.166764439
 20
117.9802598845
 10
84.7792957474
 20
118.1725845859
 10
84.3894421487
 20
118.3421579122
 10
83.9978875786
 20
118.4886823742
 10
83.6053189569
 20
118.6119009183
 10
83.2124249824
 20
118.7115973771
 10
82.8198949245
 20
118.7875968494
 10
82.4284174144
 20
118.8397660061
 10
82.0386792366
 20
118.8680133249
 10
81.6513641244
 20
118.8722892503
 10
81.2671515601
 20
118.852586281
 10
80.8867155831
 20
118.8089389826
 10
80.5107236073
 20
118.7414239273
 10
80.1398352504
 20
118.6501595594
 10
79.7747011767
 20
118.5353059877
 10
79.4159619553
 20
118.3970647045
 10
79.0642469368
 20
118.2356782317
 10
78.7201731489
 20
118.0514296962
 10
78.3843442138
 20
117.8446423326
 10
78.0573492896
 20
117.615678916
 10
77.7397620366
 20
117.3649411262
 10
77.4321396107
 20
117.0928688425
 10
77.1350216862
 20
116.799939372
 10
76.8489295089
 20
116.4866666126
 10
76.5743649816
 20
116.1536001511
 10
76.3118097839
 20
115.8013242994
 10
76.0617245267
 20
115.430457069
 10
75.8245479446
 20
115.0416490869
 10
75.600696126
 20
114.6355824546
 10
75.3905617829
 20
114.2129695509
 10
75.1945135625
 20
113.7745517824
 10
75.0128953998
 20
113.3210982828
 10
74.846025915
 20
112.8534045638
 10
74.6941978537
 20
112.3722911189
 10
74.557677574
 20
111.8786019847
 10
74.4367045788
 20
111.3732032597
 10
74.3314910959
 20
110.8569815849
 10
74.2422217054
 20
110.3308425886
 10
74.1690530163
 20
109.7957092973
 10
74.1121133912
 20
109.2525205168
 10
74.0715027217
 20
108.7022291846
 10
74.0472922526
 20
108.1458006989
 10
74.0395244573
 20
107.5842112242
 10
74.0482129631
 20
107.0184459792
 10
74.0733425276
 20
106.4494975086
 10
74.1148690648
 20
105.8783639412
 10
74.1727197232
 20
105.3060472393
 10
74.2467930129
 20
104.733551441
 10
74.3369589844
 20
104.1618808984
 10
74.4430594558
 20
103.592038516
 10
74.5649082909
 20
103.0250239908
 10
74.7022917253
 20
102.461832059
 10
74.854968742
 20
101.9034507506
 10
75.0226714934
 20
101.3508596563
 10
75.205105772
 20
100.8050282085
 10
75.4019515261
 20
100.2669139811
 10
75.6128634214
 20
99.7374610093
 10
75.8374714466
 20
99.2175981335
 10
76.0753815631
 20
98.7082373699
 10
76.3261763956
 20
98.2102723102
 10
76.5894159647
 20
97.7245765545
 10
76.8646384588
 20
97.2520021782
 10
77.1513610442
 20
96.7933782372
 10
77.4490807119
 20
96.3495093138
 10
77.7572751606
 20
95.9211741049
 10
78.0754037124
 20
95.5091240561
 10
78.4029082618
 20
95.1140820431
 10
78.7392142544
 20
94.7367411038
 10
79.0837316954
 20
94.3777632225
 10
79.435856184
 20
94.0377781684
 10
79.7949699742
 20
93.7173823908
 10
80.1604430585
 20
93.4171379727
 10
80.5316342728
 20
93.1375716449
 10
80.9078924216
 20
92.8791738617
 10
81.2885574203
 20
92.6423979407
 10
81.6729614531
 20
92.4276592672
 10
82.0604301447
 20
92.2353345659
 10
82.4502837434
 20
92.0657612396
 10
82.8418383134
 20
91.9192367776
 10
83.2344069351
 20
91.7960182335
 10
83.6273009097
 20
91.6963217746
 10
84.0198309676
 20
91.6203223023
 10
84.4113084777
 20
91.5681531456
 10
84.8010466554
 20
91.5399058268
 10
85.1883617676
 20
91.5356299014
 10
85.5725743319
 20
91.5553328708
 10
85.953010309
 20
91.5989801692
 10
86.3290022848
 20
91.6664952245
 10
86.6998906417
 20
91.7577595923
 10
87.0650247154
 20
91.872613164
 10
87.4237639368
 20
92.0108544473
 10
87.7754789552
 20
92.17224092
 10
88.1195527432
 20
92.3564894555
 10
88.4553816783
 20
92.5632768192
 10
88.7823766024
 20
92.7922402357
 10
89.0999638554
 20
93.0429780255
 10
89.4075862813
 20
93.3150503093
 10
89.7047042058
 20
93.6079797798
 10
89.9907963832
 20
93.9212525392
 10
90.2653609105
 20
94.2543190006
 10
90.5279161082
 20
94.6065948523
 10
90.7780013654
 20
94.9774620828
 10
91.0151779474
 20
95.3662700648
 10
91.2390297661
 20
95.7723366971
 10
91.4491641091
 20
96.1949496009
 10
91.6452123296
 20
96.6333673694
 10
91.8268304922
 20
97.0868208689
 10
91.9936999771
 20
97.554514588
 10
92.1455280384
 20
98.0356280328
 10
92.2820483181
 20
98.529317167
 10
92.4030213133
 20
99.0347158921
 10
92.5082347962
 20
99.5509375669
 10
92.5975041867
 20
100.0770765632
 10
92.6706728758
 20
100.6122098544
 10
92.7276125008
 20
101.155398635
 10
92.7682231704
 20
101.7056899671
 10
92.7924336395
 20
102.2621184529
 10
92.8002014348
 20
102.8237079276
  0
LINE
  5
9C
330
1F
100
AcDbEntity
  8
0
  6
SLD-Continua
 62
     7
370
    25
100
AcDbLine
 10
87.097225476
 20
91.1028894525
 30
0.0
 11
87.0879182829
 21
91.1008655917
 31
0.0
  0
LWPOLYLINE
  5
9D
330
1F
100
AcDbEntity
  8
0
  6
SLD-Continua
 62
     7
370
    25
100
AcDbPolyline
 90
       79
 70
   128
 43
0.0
 10
83.903479049
 20
120.2065599228
 10
84.1796106588
 20
120.2599777058
 10
84.5680136199
 20
120.3138732744
 10
84.9604497285
 20
120.3438600724
 10
85.3562645543
 20
120.3498880933
 10
85.7547980331
 20
120.3319472848
 10
86.1553855666
 20
120.2900675652
 10
86.5573591313
 20
120.2243187735
 10
86.9600483925
 20
120.1348105529
 10
87.3627818219
 20
120.0216921682
 10
87.7648878174
 20
119.8851522567
 10
88.1656958233
 20
119.7254185136
 10
88.5645374486
 20
119.5427573123
 10
88.9607475812
 20
119.3374732604
 10
89.3536654975
 20
119.1099086914
 10
89.7426359639
 20
118.8604430942
 10
90.1270103298
 20
118.5894924797
 10
90.5061476087
 20
118.2975086879
 10
90.879415548
 20
117.9849786335
 10
91.2461916826
 20
117.6524234946
 10
91.6058643731
 20
117.3003978432
 10
91.9578338261
 20
116.9294887205
 10
92.3015130941
 20
116.540314658
 10
92.6363290544
 20
116.1335246459
 10
92.9617233647
 20
115.7097970511
 10
93.2771533945
 20
115.2698384855
 10
93.5820931298
 20
114.8143826282
 10
93.8760340502
 20
114.3441890016
 10
94.1584859773
 20
113.8600417048
 10
94.4289778914
 20
113.3627481064
 10
94.6870587179
 20
112.8531374978
 10
94.9322980787
 20
112.3320597104
 10
95.1642870104
 20
111.8003836982
 10
95.3826386461
 20
111.2589960891
 10
95.5869888607
 20
110.7087997061
 10
95.7769968778
 20
110.1507120617
 10
95.9523458383
 20
109.5856638281
 10
96.1127433286
 20
109.0145972849
 10
96.2579218685
 20
108.4384647479
 10
96.3876393568
 20
107.8582269811
 10
96.5016794754
 20
107.2748515944
 10
96.5998520501
 20
106.6893114299
 10
96.6819933673
 20
106.1025829398
 10
96.7479664473
 20
105.515644558
 10
96.797661273
 20
104.9294750683
 10
96.8309949727
 20
104.3450519724
 10
96.8479119588
 20
103.7633498597
 10
96.8483840204
 20
103.1853387819
 10
96.8324103703
 20
102.6119826357
 10
96.8000176464
 20
102.044237555
 10
96.751259867
 20
101.4830503168
 10
96.686218341
 20
100.9293567622
 10
96.6050015322
 20
100.3840802356
 10
96.5077448787
 20
99.8481300452
 10
96.3946105665
 20
99.3223999465
 10
96.2657872594
 20
98.8077666518
 10
96.1214897843
 20
98.3050883684
 10
95.961958773
 20
97.8152033672
 10
95.787460261
 20
97.338928585
 10
95.5982852436
 20
96.877058262
 10
95.3947491907
 20
96.4303626174
 10
95.177191521
 20
95.999586565
 10
94.9459750356
 20
95.585448471
 10
94.7014853134
 20
95.1886389558
 10
94.4441300675
 20
94.8098197426
 10
94.1743384661
 20
94.4496225539
 10
93.892560416
 20
94.1086480578
 10
93.599265813
 20
93.7874648666
 10
93.2949437578
 20
93.4866085883
 10
92.9801017407
 20
93.2065809336
 10
92.6552647951
 20
92.9478488792
 10
92.3209746223
 20
92.7108438891
 10
91.9777886874
 20
92.495961195
 10
91.6262792906
 20
92.3035591372
 10
91.2670326122
 20
92.1339585673
 10
90.9006477353
 20
91.9874423126
 10
90.5277356466
 20
91.864254705
 10
90.1489182178
 20
91.7646011734
 10
90.0695895246
 20
91.746878238
  0
ARC
  5
9E
330
1F
100
AcDbEntity
  8
0
  6
SLD-Continua
 62
     7
370
    25
100
AcDbCircle
 10
281.8423396433
 20
156.1784242528
 30
0.0
 40
6.597144285072353
100
AcDbArc
 50
75.2767125116
 51
101.9063258711
  0
LWPOLYLINE
  5
9F
330
1F
100
AcDbEntity
  8
0
  6
SLD-Continua
 62
     7
370
    25
100
AcDbPolyline
 90
       70
 70
   128
 43
0.0
 10
286.5796191889
 20
134.4867010488
 10
286.8776885893
 20
134.5589874282
 10
287.2510558682
 20
134.6718594869
 10
287.6181493533
 20
134.8081503791
 10
287.9783500418
 20
134.9676302874
 10
288.331050554
 20
135.1500302927
 10
288.675656157
 20
135.3550428272
 10
289.0115857678
 20
135.5823221934
 10
289.3382729331
 20
135.831485147
 10
289.6551667844
 20
136.1021115428
 10
289.961732967
 20
136.3937450435
 10
290.2574545409
 20
136.705893889
 10
290.5418328527
 20
137.0380317258
 10
290.8143883762
 20
137.3895984944
 10
291.0746615211
 20
137.7600013735
 10
291.3222134081
 20
138.1486157803
 10
291.5566266086
 20
138.5547864228
 10
291.777505849
 20
138.9778284055
 10
291.9844786769
 20
139.417028384
 10
292.1771960893
 20
139.8716457676
 10
292.355333121
 20
140.3409139686
 10
292.5185893927
 20
140.8240416947
 10
292.6666896174
 20
141.3202142833
 10
292.7993840647
 20
141.8285950751
 10
292.9164489815
 20
142.3483268251
 10
293.0176869701
 20
142.8785331479
 10
293.1029273203
 20
143.4183199958
 10
293.1720262975
 20
143.9667771661
 10
293.2248673853
 20
144.5229798359
 10
293.2613614816
 20
145.0859901216
 10
293.2814470491
 20
145.6548586605
 10
293.285090219
 20
146.2286262116
 10
293.2722848481
 20
146.8063252731
 10
293.2430525292
 20
147.3869817135
 10
293.1974425545
 20
147.9696164148
 10
293.1355318329
 20
148.5532469231
 10
293.0574247597
 20
149.1368891052
 10
292.9632530411
 20
149.7195588085
 10
292.8531754721
 20
150.3002735201
 10
292.7273776682
 20
150.8780540234
 10
292.586071753
 20
151.45192605
 10
292.4294960003
 20
152.0209219217
 10
292.2579144323
 20
152.5840821827
 10
292.0716163741
 20
153.1404572176
 10
291.8709159666
 20
153.689108852
 10
291.656151636
 20
154.2291119353
 10
291.4276855236
 20
154.7595559001
 10
291.1859028748
 20
155.2795462978
 10
290.93121139
 20
155.788206307
 10
290.6640405366
 20
156.2846782119
 10
290.3848408252
 20
156.7681248484
 10
290.0940830495
 20
157.2377310163
 10
289.7922574929
 20
157.6927048533
 10
289.4798731018
 20
158.1322791705
 10
289.1574566267
 20
158.5557127463
 10
288.8255517348
 20
158.9622915757
 10
288.4847180928
 20
159.351330075
 10
288.1355304234
 20
159.7221722373
 10
287.778577536
 20
160.0741927386
 10
287.4144613339
 20
160.4067979929
 10
287.0437957993
 20
160.7194271525
 10
286.6672059583
 20
161.0115530538
 10
286.2853268264
 20
161.2826831065
 10
285.8988023384
 20
161.532360124
 10
285.5082842618
 20
161.7601630943
 10
285.1144310987
 20
161.9657078901
 10
284.7179069743
 20
162.1486479165
 10
284.3193805183
 20
162.308674695
 10
283.9195237362
 20
162.4455183844
 10
283.5190108772
 20
162.5589482353
  0
ARC
  5
A0
330
1F
100
AcDbEntity
  8
0
  6
SLD-Continua
 62
     7
370
    25
100
AcDbCircle
 10
120.3579700472
 20
332.2640311714
 30
0.0
 40
142.5852040543686
100
AcDbArc
 50
258.059650338
 51
280.9239849013
  0
LINE
  5
A1
330
1F
100
AcDbEntity
  8
0
  6
SLD-Continua
 62
     7
370
    25
100
AcDbLine
 10
18.235430715
 20
211.1917877454
 30
0.0
 11
90.8580560673
 21
192.7638681235
 31
0.0
  0
LINE
  5
A2
330
1F
100
AcDbEntity
  8
0
  6
SLD-Continua
 62
     7
370
    25
100
AcDbLine
 10
18.235430715
 20
211.1917877454
 30
0.0
 11
232.4329846634
 21
257.6000995412
 31
0.0
  0
LINE
  5
A3
330
1F
100
AcDbEntity
  8
0
  6
SLD-Continua
 62
     7
370
    25
100
AcDbLine
 10
232.4329846634
 20
257.6000995412
 30
0.0
 11
305.0556100156
 21
239.1721799192
 31
0.0
  0
LWPOLYLINE
  5
A4
330
1F
100
AcDbEntity
  8
0
  6
SLD-Continua
 62
     7
370
    25
100
AcDbPolyline
 90
       64
 70
   128
 43
0.0
 10
302.7308636231
 20
225.9213224042
 10
303.4559703628
 20
226.0823869951
 10
304.1637812611
 20
226.2476258871
 10
304.8538563174
 20
226.4169363618
 10
305.5257665561
 20
226.5902131698
 10
306.1790942937
 20
226.7673485959
 10
306.8134333981
 20
226.9482325263
 10
307.4283895412
 20
227.1327525172
 10
308.0235804442
 20
227.3207938642
 10
308.598636115
 20
227.512239674
 10
309.1531990784
 20
227.7069709371
 10
309.6869245979
 20
227.9048666016
 10
310.1994808907
 20
228.1058036482
 10
310.6905493332
 20
228.3096571674
 10
311.1598246596
 20
228.5163004364
 10
311.6070151516
 20
228.7256049984
 10
312.0318428193
 20
228.937440742
 10
312.4340435747
 20
229.1516759827
 10
312.8133673952
 20
229.3681775439
 10
313.1695784796
 20
229.5868108407
 10
313.5024553941
 20
229.8074399625
 10
313.8117912106
 20
230.0299277586
 10
314.0973936346
 20
230.2541359223
 10
314.3590851256
 20
230.4799250779
 10
314.5967030066
 20
230.7071548666
 10
314.8100995658
 20
230.9356840344
 10
314.9991421482
 20
231.1653705191
 10
315.1637132381
 20
231.3960715394
 10
315.3037105323
 20
231.6276436834
 10
315.4190470034
 20
231.8599429973
 10
315.509650954
 20
232.0928250755
 10
315.5754660615
 20
232.3261451503
 10
315.6164514129
 20
232.5597581813
 10
315.6325815301
 20
232.7935189464
 10
315.6238463862
 20
233.0272821315
 10
315.5902514112
 20
233.2609024209
 10
315.5318174889
 20
233.4942345879
 10
315.448580944
 20
233.7271335847
 10
315.3405935193
 20
233.959454633
 10
315.2079223437
 20
234.1910533137
 10
315.0506498904
 20
234.4217856567
 10
314.8688739255
 20
234.6515082304
 10
314.6627074476
 20
234.880078231
 10
314.4322786172
 20
235.1073535712
 10
314.177730677
 20
235.3331929684
 10
313.8992218634
 20
235.5574560328
 10
313.5969253074
 20
235.7800033544
 10
313.2710289273
 20
236.0006965897
 10
312.9217353122
 20
236.2193985478
 10
312.5492615955
 20
236.4359732759
 10
312.1538393203
 20
236.6502861431
 10
311.7357142953
 20
236.862203925
 10
311.2951464421
 20
237.0715948857
 10
310.8324096335
 20
237.2783288604
 10
310.3477915234
 20
237.4822773358
 10
309.8415933678
 20
237.6833135301
 10
309.3141298377
 20
237.881312472
 10
308.7657288235
 20
238.0761510782
 10
308.196731231
 20
238.2677082301
 10
307.6074907695
 20
238.4558648489
 10
306.9983737321
 20
238.6405039695
 10
306.3697587679
 20
238.8215108137
 10
305.7220366466
 20
238.9987728611
 10
305.0556100156
 20
239.1721799192
  0
LINE
  5
A5
330
1F
100
AcDbEntity
  8
0
  6
SLD-Continua
 62
     7
370
    25
100
AcDbLine
 10
147.3787915287
 20
192.2625468161
 30
0.0
 11
302.7308636231
 21
225.9213224042
 31
0.0
  0
LINE
  5
A6
330
1F
100
AcDbEntity
  8
0
  6
SLD-Continua
 62
     7
370
    25
100
AcDbLine
 10
147.3787915287
 20
192.2625468161
 30
0.0
 11
147.3806969957
 21
189.9294171125
 31
0.0
  0
ARC
  5
A7
330
1F
100
AcDbEntity
  8
0
  6
SLD-Continua
 62
     7
370
    25
100
AcDbCircle
 10
120.3584825401
 20
329.7738526491
 30
0.0
 40
142.4312684230822
100
AcDbArc
 50
258.047127883
 51
280.9365073563
  0
LINE
  5
A8
330
1F
100
AcDbEntity
  8
0
  6
SLD-Continua
 62
     7
370
    25
100
AcDbLine
 10
90.8599615343
 20
190.4307384199
 30
0.0
 11
90.8580560673
 21
192.7638681235
 31
0.0
  0
LINE
  5
A9
330
1F
100
AcDbEntity
  8
0
  6
SLD-Continua
 62
     7
370
    25
100
AcDbLine
 10
302.7327690901
 20
223.5881927007
 30
0.0
 11
302.7308636231
 21
225.9213224042
 31
0.0
  0
LINE
  5
AA
330
1F
100
AcDbEntity
  8
0
  6
SLD-Continua
 62
     7
370
    25
100
AcDbLine
 10
147.3806969957
 20
189.9294171125
 30
0.0
 11
302.7327690901
 21
223.5881927007
 31
0.0
  0
LINE
  5
AB
330
1F
100
AcDbEntity
  8
0
  6
SLD-Continua
 62
     7
370
    25
100
AcDbLine
 10
18.235430715
 20
211.1917877454
 30
0.0
 11
18.237336182
 21
208.8586580419
 31
0.0
  0
LINE
  5
AC
330
1F
100
AcDbEntity
  8
0
  6
SLD-Continua
 62
     7
370
    25
100
AcDbLine
 10
18.237336182
 20
208.8586580419
 30
0.0
 11
90.8599615343
 21
190.4307384199
 31
0.0
  0
LWPOLYLINE
  5
AD
330
1F
100
AcDbEntity
  8
0
  6
SLD-Continua
 62
     7
370
    25
100
AcDbPolyline
 90
       16
 70
   128
 43
0.0
 10
16.6133619769
 20
206.9380937029
 10
16.6220695403
 20
207.1797120892
 10
16.6484951798
 20
207.4141631014
 10
16.6923493705
 20
207.6388780452
 10
16.7531516366
 20
207.8513948966
 10
16.830235816
 20
208.0493852766
 10
16.9227573581
 20
208.230679961
 10
17.0297025776
 20
208.3932926475
 10
17.1498997602
 20
208.5354417173
 10
17.2820320006
 20
208.6555697555
 10
17.4246516301
 20
208.7523606142
 10
17.5761960784
 20
208.8247538325
 10
17.7350049927
 20
208.8719562552
 10
17.8993384293
 20
208.8934507226
 10
18.0673959168
 20
208.8890017368
 10
18.237336182
 20
208.8586580419
  0
LINE
  5
AE
330
1F
100
AcDbEntity
  8
0
  6
SLD-Continua
 62
     7
370
    25
100
AcDbLine
 10
16.6133619769
 20
206.9380937029
 30
0.0
 11
14.9874823048
 21
207.3506590676
 31
0.0
  0
LWPOLYLINE
  5
AF
330
1F
100
AcDbEntity
  8
0
  6
SLD-Continua
 62
     7
370
    25
100
AcDbPolyline
 90
       23
 70
   128
 43
0.0
 10
14.9874823048
 20
207.3506590676
 10
14.9954955461
 20
207.6814438638
 10
15.0200381739
 20
208.0063383794
 10
15.0609851247
 20
208.3236870265
 10
15.1181277422
 20
208.6318726691
 10
15.1911748408
 20
208.9293248637
 10
15.2797541892
 20
209.2145278623
 10
15.3834144073
 20
209.4860283357
 10
15.5016272664
 20
209.7424427797
 10
15.6337903808
 20
209.9824645651
 10
15.7792302777
 20
210.2048705959
 10
15.9372058287
 20
210.4085275419
 10
16.1069120266
 20
210.5923976141
 10
16.2874840874
 20
210.7555438526
 10
16.4780018574
 20
210.8971349017
 10
16.6774945016
 20
211.0164492458
 10
16.8849454513
 20
211.1128788863
 10
17.099297584
 20
211.18593244
 10
17.3194586104
 20
211.2352376426
 10
17.5443066403
 20
211.2605432462
 10
17.7726958997
 20
211.2617202992
 10
18.0034625693
 20
211.2387628035
 10
18.235430715
 20
211.1917877454
  0
ARC
  5
B0
330
1F
100
AcDbEntity
  8
0
  6
SLD-Continua
 62
     7
370
    25
100
AcDbCircle
 10
231.874062433
 20
255.4719641022
 30
0.0
 40
2.200307820747843
100
AcDbArc
 50
75.2844756682
 51
101.8985627145
  0
ARC
  5
B1
330
1F
100
AcDbEntity
  8
0
  6
SLD-Continua
 62
     7
370
    25
100
AcDbCircle
 10
120.2976429372
 20
180.1633080354
 30
0.0
 40
33.03549616402278
100
AcDbArc
 50
161.0533651205
 51
179.8649020593
  0
LINE
  5
B2
330
1F
100
AcDbEntity
  8
0
  6
SLD-Continua
 62
     7
370
    25
100
AcDbLine
 10
87.2852011226
 20
152.1249831965
 30
0.0
 11
87.262238607
 21
180.2412024877
 31
0.0
  0
LWPOLYLINE
  5
B3
330
1F
100
AcDbEntity
  8
0
  6
SLD-Continua
 62
     7
370
    25
100
AcDbPolyline
 90
       73
 70
   128
 43
0.0
 10
16.6857697217
 20
118.279164967
 10
16.698866234
 20
117.0603020227
 10
16.736151623
 20
115.8475171632
 10
16.7976003351
 20
114.6416415709
 10
16.8831702564
 20
113.4435016926
 10
16.9928027415
 20
112.2539186735
 10
17.1264226538
 20
111.0737077944
 10
17.283938417
 20
109.9036779129
 10
17.4652420775
 20
108.744630909
 10
17.670209379
 20
107.5973611357
 10
17.898699847
 20
106.4626548743
 10
18.1505568856
 20
105.3412897958
 10
18.4256078845
 20
104.2340344278
 10
18.7236643376
 20
103.141647628
 10
19.0445219719
 20
102.0648780635
 10
19.3879608874
 20
101.0044636985
 10
19.7537457085
 20
99.961131288
 10
20.1416257444
 20
98.9355958799
 10
20.5513351615
 20
97.9285603251
 10
20.9825931655
 20
96.9407147952
 10
21.4351041936
 20
95.9727363104
 10
21.9085581175
 20
95.0252882748
 10
22.4026304554
 20
94.0990200218
 10
22.9169825948
 20
93.1945663695
 10
23.4512620245
 20
92.3125471852
 10
24.005102576
 20
91.4535669608
 10
24.5781246747
 20
90.6182143985
 10
25.1699355999
 20
89.8070620072
 10
25.7801297539
 20
89.0206657102
 10
26.4082889401
 20
88.2595644643
 10
27.0539826496
 20
87.5242798902
 10
27.7167683563
 20
86.8153159152
 10
28.3961918197
 20
86.1331584279
 10
29.0917873972
 20
85.4782749449
 10
29.8030783621
 20
84.8511142906
 10
30.5295772312
 20
84.2521062897
 10
31.2707860985
 20
83.6816614722
 10
32.0261969765
 20
83.1401707926
 10
32.7952921442
 20
82.6280053616
 10
33.5775445022
 20
82.1455161916
 10
34.3724179338
 20
81.6930339568
 10
35.1793676726
 20
81.2708687659
 10
35.9978406755
 20
80.8793099497
 10
36.8272760018
 20
80.5186258631
 10
37.6671051982
 20
80.189063701
 10
38.5167526876
 20
79.8908493288
 10
39.3756361641
 20
79.6241871278
 10
40.2431669918
 20
79.3892598548
 10
41.1187506085
 20
79.1862285175
 10
42.0017869329
 20
79.0152322631
 10
42.8916707759
 20
78.8763882842
 10
43.7877922557
 20
78.7697917373
 10
44.6895372153
 20
78.6955156784
 10
45.5962876439
 20
78.6536110127
 10
46.5074220999
 20
78.6441064595
 10
47.4223161373
 20
78.6670085327
 10
48.3403427334
 20
78.7223015364
 10
49.2608727186
 20
78.8099475756
 10
50.1832752078
 20
78.929886582
 10
51.1069180323
 20
79.0820363554
 10
52.0311681734
 20
79.26629262
 10
52.9553921962
 20
79.4825290957
 10
53.8789566839
 20
79.7305975849
 10
54.8012286714
 20
80.0103280738
 10
55.7215760795
 20
80.321528849
 10
56.6393681481
 20
80.6639866292
 10
57.5539758685
 20
81.0374667109
 10
58.4647724141
 20
81.4417131294
 10
59.3711335704
 20
81.8764488345
 10
60.2724381629
 20
82.3413758801
 10
61.1680684824
 20
82.8361756283
 10
62.0574107085
 20
83.3605089681
 10
62.2958790275
 20
83.5067890769
  0
LINE
  5
B4
330
1F
100
AcDbEntity
  8
0
  6
SLD-Continua
 62
     7
370
    25
100
AcDbLine
 10
16.6857697217
 20
118.279164967
 30
0.0
 11
16.6133619769
 21
206.9380937029
 31
0.0
  0
LINE
  5
B5
330
1F
100
AcDbEntity
  8
0
  6
SLD-Continua
 62
     7
370
    25
100
AcDbLine
 10
15.0598900496
 20
118.6917303317
 30
0.0
 11
14.9874823048
 21
207.3506590676
 31
0.0
  0
LINE
  5
B6
330
1F
100
AcDbEntity
  8
0
  6
SLD-Continua
 62
     7
370
    25
100
AcDbLine
 10
15.0598900496
 20
118.6917303317
 30
0.0
 11
16.6857697217
 21
118.279164967
 31
0.0
  0
LWPOLYLINE
  5
B7
330
1F
100
AcDbEntity
  8
0
  6
SLD-Continua
 62
     7
370
    25
100
AcDbPolyline
 90
       48
 70
   128
 43
0.0
 10
15.0598900496
 20
118.6917303317
 10
15.072986562
 20
117.4728673873
 10
15.110271951
 20
116.2600825279
 10
15.171720663
 20
115.0542069356
 10
15.2572905843
 20
113.8560670573
 10
15.3669230694
 20
112.6664840382
 10
15.5005429818
 20
111.4862731591
 10
15.6580587449
 20
110.3162432776
 10
15.8393624055
 20
109.1571962737
 10
16.0443297069
 20
108.0099265004
 10
16.2728201749
 20
106.8752202389
 10
16.5246772135
 20
105.7538551605
 10
16.7997282124
 20
104.6465997925
 10
17.0977846655
 20
103.5542129926
 10
17.4186422998
 20
102.4774434281
 10
17.7620812154
 20
101.4170290631
 10
18.1278660364
 20
100.3736966527
 10
18.5157460723
 20
99.3481612446
 10
18.9254554895
 20
98.3411256897
 10
19.3567134934
 20
97.3532801599
 10
19.8092245216
 20
96.3853016751
 10
20.2826784454
 20
95.4378536394
 10
20.7767507833
 20
94.5115853864
 10
21.2911029227
 20
93.6071317341
 10
21.8253823524
 20
92.7251125499
 10
22.3792229039
 20
91.8661323255
 10
22.9522450026
 20
91.0307797632
 10
23.5440559278
 20
90.2196273719
 10
24.1542500818
 20
89.4332310749
 10
24.7824092681
 20
88.672129829
 10
25.4281029776
 20
87.9368452549
 10
26.0908886842
 20
87.2278812799
 10
26.7703121477
 20
86.5457237926
 10
27.4659077251
 20
85.8908403096
 10
28.17719869
 20
85.2636796553
 10
28.9036975592
 20
84.6646716544
 10
29.6449064265
 20
84.0942268369
 10
30.4003173044
 20
83.5527361573
 10
31.1694124721
 20
83.0405707262
 10
31.9516648301
 20
82.5580815563
 10
32.7465382618
 20
82.1055993215
 10
33.5534880006
 20
81.6834341305
 10
34.3719610034
 20
81.2918753143
 10
35.2013963298
 20
80.9311912277
 10
36.0412255262
 20
80.6016290656
 10
36.8908730156
 20
80.3034146935
 10
37.749756492
 20
80.0367524924
 10
38.5613769708
 20
79.8159425521
  0
LWPOLYLINE
  5
B8
330
1F
100
AcDbEntity
  8
0
  6
SLD-Continua
 62
     7
370
    25
100
AcDbPolyline
 90
       35
 70
   128
 43
0.0
 10
315.6347612157
 20
230.4969500999
 10
315.6344869971
 20
230.4603892429
 10
315.6183568798
 20
230.2266284777
 10
315.5773715285
 20
229.9930154467
 10
315.5115564209
 20
229.7596953719
 10
315.4209524703
 20
229.5268132937
 10
315.3056159993
 20
229.2945139798
 10
315.1656187051
 20
229.0629418359
 10
315.0010476151
 20
228.8322408155
 10
314.8120050327
 20
228.6025543308
 10
314.5986084735
 20
228.3740251631
 10
314.3609905926
 20
228.1467953743
 10
314.0992991016
 20
227.9210062187
 10
313.8136966775
 20
227.696798055
 10
313.5043608611
 20
227.474310259
 10
313.1714839466
 20
227.2536811371
 10
312.8152728622
 20
227.0350478404
 10
312.4359490417
 20
226.8185462791
 10
312.0337482863
 20
226.6043110385
 10
311.6089206186
 20
226.3924752948
 10
311.1617301266
 20
226.1831707328
 10
310.6924548002
 20
225.9765274638
 10
310.2013863576
 20
225.7726739446
 10
309.6888300649
 20
225.571736898
 10
309.1551045454
 20
225.3738412336
 10
308.600541582
 20
225.1791099704
 10
308.0254859112
 20
224.9876641606
 10
307.4302950081
 20
224.7996228136
 10
306.815338865
 20
224.6151028227
 10
306.1809997607
 20
224.4342188923
 10
305.5276720231
 20
224.2570834662
 10
304.8557617844
 20
224.0838066583
 10
304.1656867281
 20
223.9144961835
 10
303.4578758298
 20
223.7492572915
 10
302.7327690901
 20
223.5881927007
  0
LWPOLYLINE
  5
B9
330
1F
100
AcDbEntity
  8
0
  6
SLD-Continua
 62
     7
370
    25
100
AcDbPolyline
 90
       43
 70
   128
 43
0.0
 10
290.2171428478
 20
161.0149642684
 10
289.8455932694
 20
161.4566686092
 10
289.4653155864
 20
161.8805488292
 10
289.0768353767
 20
162.2860190879
 10
288.680689555
 20
162.6725189887
 10
288.2774256302
 20
163.0395143543
 10
287.8676009496
 20
163.3864979638
 10
287.4517819275
 20
163.7129902549
 10
287.0305432634
 20
164.0185399857
 10
286.6044671469
 20
164.3027248591
 10
286.1741424535
 20
164.5651521061
 10
285.7401639307
 20
164.8054590285
 10
285.3031313757
 20
165.0233135006
 10
284.863648807
 20
165.2184144279
 10
284.4223236289
 20
165.3904921635
 10
283.9797657925
 20
165.5393088803
 10
283.5365869525
 20
165.6646589004
 10
283.093399622
 20
165.7663689786
 10
282.6508163256
 20
165.8442985426
 10
282.2094487534
 20
165.8983398866
 10
281.7699069149
 20
165.9284183208
 10
281.3327982966
 20
165.9344922738
 10
280.8987270218
 20
165.9165533512
 10
280.4682930161
 20
165.8746263459
 10
280.042091178
 20
165.808769205
 10
279.6207105567
 20
165.7190729488
 10
279.2047335382
 20
165.6056615458
 10
278.7947350401
 20
165.4686917406
 10
278.3912817172
 20
165.3083528379
 10
277.9949311783
 20
165.1248664404
 10
277.6062312155
 20
164.9184861428
 10
277.225719047
 20
164.6894971813
 10
276.853920575
 20
164.4382160392
 10
276.4913496582
 20
164.1649900096
 10
276.1385074024
 20
163.8701967155
 10
275.7958814673
 20
163.5542435877
 10
275.4639453927
 20
163.2175673019
 10
275.1431579441
 20
162.8606331749
 10
274.8339624786
 20
162.4839345218
 10
274.5367863322
 20
162.0879919741
 10
274.252040229
 20
161.6733527599
 10
273.9801177138
 20
161.2405899479
 10
273.9694324526
 20
161.2227764516
  0
LWPOLYLINE
  5
BA
330
1F
100
AcDbEntity
  8
0
  6
SLD-Continua
 62
     7
370
    25
100
AcDbPolyline
 90
       78
 70
   128
 43
0.0
 10
280.0677834723
 20
133.0758385216
 10
280.2428141288
 20
132.9570117514
 10
280.6710885293
 20
132.6836584623
 10
281.1033148158
 20
132.4322479399
 10
281.5388956127
 20
132.2031276561
 10
281.9772289081
 20
131.9966142758
 10
282.4177088859
 20
131.812993219
 10
282.8597267634
 20
131.6525182665
 10
283.3026716319
 20
131.5154112093
 10
283.7459313018
 20
131.4018615415
 10
284.1888931485
 20
131.3120261989
 10
284.6309449588
 20
131.2460293422
 10
285.0714757774
 20
131.203962185
 10
285.509876751
 20
131.1858828677
 10
285.9455419702
 20
131.1918163776
 10
286.3778693063
 20
131.2217545142
 10
286.8062612441
 20
131.2756559002
 10
287.2301257075
 20
131.353446039
 10
287.6488768776
 20
131.4550174177
 10
288.0619360026
 20
131.5802296555
 10
288.4687321978
 20
131.7289096978
 10
288.8687032342
 20
131.9008520555
 10
289.2612963158
 20
132.0958190887
 10
289.6459688437
 20
132.3135413354
 10
290.0221891659
 20
132.553717884
 10
290.389437312
 20
132.8160167889
 10
290.7472057121
 20
133.1000755293
 10
291.0949998981
 20
133.4055015106
 10
291.4323391872
 20
133.7318726065
 10
291.7587573461
 20
134.078737743
 10
292.0738032355
 20
134.4456175211
 10
292.3770414338
 20
134.83200488
 10
292.6680528384
 20
135.2373657976
 10
292.9464352454
 20
135.6611400288
 10
293.2118039054
 20
136.1027418794
 10
293.4637920549
 20
136.5615610159
 10
293.7020514237
 20
137.036963309
 10
293.9262527159
 20
137.5282917101
 10
294.1360860651
 20
138.034867159
 10
294.3312614628
 20
138.555989523
 10
294.5115091591
 20
139.0909385641
 10
294.6765800353
 20
139.6389749345
 10
294.8262459488
 20
140.1993411988
 10
294.9603000478
 20
140.7712628804
 10
295.0785570574
 20
141.3539495321
 10
295.1808535358
 20
141.9465958285
 10
295.2670481002
 20
142.5483826792
 10
295.3370216218
 20
143.1584783606
 10
295.3906773909
 20
143.7760396656
 10
295.4279412505
 20
144.400213069
 10
295.4487616986
 20
145.030135907
 10
295.4531099594
 20
145.6649375696
 10
295.4409800232
 20
146.3037407037
 10
295.4123886547
 20
146.9456624261
 10
295.3673753697
 20
147.5898155431
 10
295.3060023807
 20
148.2353097773
 10
295.2283545107
 20
148.8812529976
 10
295.1345390759
 20
149.5267524522
 10
295.0246857377
 20
150.1709160031
 10
294.8989463234
 20
150.8128533581
 10
294.7574946161
 20
151.4516773022
 10
294.6005261148
 20
152.0865049231
 10
294.4282577641
 20
152.7164588322
 10
294.2409276543
 20
153.3406683763
 10
294.0387946925
 20
153.9582708418
 10
293.8221382446
 20
154.5684126465
 10
293.5912577493
 20
155.1702505195
 10
293.3464723043
 20
155.7629526669
 10
293.0881202249
 20
156.345699921
 10
292.8165585771
 20
156.9176868726
 10
292.5321626834
 20
157.4781229843
 10
292.2353256046
 20
158.0262336831
 10
291.9264575962
 20
158.5612614306
 10
291.6059855414
 20
159.0824667704
 10
291.2743523617
 20
159.5891293499
 10
290.9320164037
 20
160.0805489157
 10
290.5794508066
 20
160.556046282
 10
290.2171428478
 20
161.0149642684
  0
LINE
  5
BB
330
1F
100
AcDbEntity
  8
0
  6
SLD-Continua
 62
     7
370
    25
100
AcDbLine
 10
111.1369643551
 20
131.1583592972
 30
0.0
 11
111.1574884725
 21
131.1528734943
 31
0.0
  0
ARC
  5
BC
330
1F
100
AcDbEntity
  8
0
  6
SLD-Continua
 62
     7
370
    25
100
AcDbCircle
 10
96.5170548049
 20
123.2936037919
 30
0.0
 40
0.582856995014739
100
AcDbArc
 50
171.6901921174
 51
244.1488918064
  0
ARC
  5
BD
330
1F
100
AcDbEntity
  8
0
  6
SLD-Continua
 62
     7
370
    25
100
AcDbCircle
 10
103.3301738693
 20
100.5842937447
 30
0.0
 40
23.28327011130378
100
AcDbArc
 50
101.2971627888
 51
107.6699886718
  0
LINE
  5
BE
330
1F
100
AcDbEntity
  8
0
  6
SLD-Continua
 62
     7
370
    25
100
AcDbLine
 10
115.4016417346
 20
127.0200765893
 30
0.0
 11
98.7690374775
 21
123.4164356041
 31
0.0
  0
LWPOLYLINE
  5
BF
330
1F
100
AcDbEntity
  8
0
  6
SLD-Continua
 62
     7
370
    25
100
AcDbPolyline
 90
        8
 70
   128
 43
0.0
 10
116.3413251729
 20
127.1192880521
 10
116.3905363686
 20
127.1606703241
 10
116.3889975495
 20
127.1835095875
 10
116.3257731294
 20
127.1906669664
 10
116.2055920329
 20
127.1781533335
 10
115.9814064807
 20
127.1397768097
 10
115.691117895
 20
127.0816275072
 10
115.4016417346
 20
127.0200765893
  0
ARC
  5
C0
330
1F
100
AcDbEntity
  8
0
  6
SLD-Continua
 62
     7
370
    25
100
AcDbCircle
 10
99.344920467
 20
107.6060372598
 30
0.0
 40
16.13509013777217
100
AcDbArc
 50
91.4183866719
 51
102.1813218182
  0
LWPOLYLINE
  5
C1
330
1F
100
AcDbEntity
  8
0
  6
SLD-Continua
 62
     7
370
    25
100
AcDbPolyline
 90
       38
 70
   128
 43
0.0
 10
115.5781330145
 20
127.339824556
 10
115.1939486167
 20
127.6504341441
 10
114.799114285
 20
127.9398691631
 10
114.3941608828
 20
128.2077404611
 10
113.979632879
 20
128.4536878794
 10
113.5560876156
 20
128.677380736
 10
113.1240945586
 20
128.8785182712
 10
112.6842345322
 20
129.0568300509
 10
112.2370989379
 20
129.2120763311
 10
111.7832889594
 20
129.3440483797
 10
111.3234147543
 20
129.4525687574
 10
110.8580946335
 20
129.5374915562
 10
110.3879542304
 20
129.5987025954
 10
109.9136256589
 20
129.6361195754
 10
109.4357466645
 20
129.6496921883
 10
108.9549597659
 20
129.6394021855
 10
108.4719113918
 20
129.605263402
 10
107.9872510114
 20
129.5473217383
 10
107.5016302613
 20
129.4656550981
 10
107.0157020692
 20
129.360373284
 10
106.5301197765
 20
129.2316178498
 10
106.0455362592
 20
129.0795619101
 10
105.5626030506
 20
128.9044099073
 10
105.0819694651
 20
128.7063973372
 10
104.604281725
 20
128.4857904322
 10
104.1301820923
 20
128.242885803
 10
103.6603080042
 20
127.9780100403
 10
103.1952912169
 20
127.6915192754
 10
102.7357569557
 20
127.3837987015
 10
102.2823230747
 20
127.0552620557
 10
101.8355992256
 20
126.7063510628
 10
101.3961860386
 20
126.3375348413
 10
100.9646743144
 20
125.9493092728
 10
100.5416442301
 20
125.5421963351
 10
100.127664559
 20
125.1167434006
 10
99.7232919058
 20
124.6735225002
 10
99.3290699585
 20
124.2131295541
 10
98.9455287574
 20
123.7361835708
  0
ARC
  5
C2
330
1F
100
AcDbEntity
  8
0
  6
SLD-Continua
 62
     7
370
    25
100
AcDbCircle
 10
98.6392382846
 20
123.6966637903
 30
0.0
 40
0.3088295108592113
100
AcDbArc
 50
294.8531508297
 51
7.352090339
  0
LINE
  5
C3
330
1F
100
AcDbEntity
  8
0
  6
SLD-Continua
 62
     7
370
    25
100
AcDbLine
 10
98.9455287574
 20
123.7361835708
 30
0.0
 11
115.5781330145
 21
127.339824556
 31
0.0
  0
ARC
  5
C4
330
1F
100
AcDbEntity
  8
0
  6
SLD-Continua
 62
     7
370
    25
100
AcDbCircle
 10
115.2718425417
 20
127.3003047755
 30
0.0
 40
0.3088295108593404
100
AcDbArc
 50
294.8531508297
 51
7.352090339
  0
ARC
  5
C5
330
1F
100
AcDbEntity
  8
0
  6
SLD-Continua
 62
     7
370
    25
100
AcDbCircle
 10
59.1088225707
 20
103.8949062251
 30
0.0
 40
20.54695317163089
100
AcDbArc
 50
255.6639707349
 51
258.0586169251
  0
LWPOLYLINE
  5
C6
330
1F
100
AcDbEntity
  8
0
  6
SLD-Continua
 62
     7
370
    25
100
AcDbPolyline
 90
        3
 70
   128
 43
0.0
 10
73.774303378
 20
161.8283797576
 10
74.4862916311
 20
161.6353099041
 10
74.5900983149
 20
161.6048536833
  0
LWPOLYLINE
  5
C7
330
1F
100
AcDbEntity
  8
0
  6
SLD-Continua
 62
     7
370
    25
100
AcDbPolyline
 90
       75
 70
   128
 43
0.0
 10
22.2760904978
 20
119.4903709067
 10
22.2854341256
 20
120.5206598553
 10
22.3151378754
 20
121.5546553324
 10
22.3651813898
 20
122.5916486892
 10
22.4355303715
 20
123.6309292223
 10
22.5261366068
 20
124.6717846606
 10
22.6369379986
 20
125.7135016538
 10
22.7678586093
 20
126.7553662612
 10
22.9188087124
 20
127.7966644407
 10
23.0896848542
 20
128.8366825387
 10
23.2803699248
 20
129.8747077787
 10
23.4907332382
 20
130.91002875
 10
23.7206306218
 20
131.9419358953
 10
23.9699045154
 20
132.9697219971
 10
24.2383840793
 20
133.992682662
 10
24.5258853108
 20
135.010116804
 10
24.832211171
 20
136.0213271245
 10
25.1571517196
 20
137.0256205904
 10
25.5004842583
 20
138.0223089093
 10
25.8619734844
 20
139.0107090006
 10
26.2413716511
 20
139.9901434643
 10
26.6384187378
 20
140.9599410451
 10
27.0528426284
 20
141.919437092
 10
27.4843592974
 20
142.8679740144
 10
27.9326730048
 20
143.8049017325
 10
28.3974764988
 20
144.7295781228
 10
28.8784512263
 20
145.6413694583
 10
29.3752675513
 20
146.5396508427
 10
29.8875849806
 20
147.423806639
 10
30.4150523975
 20
148.2932308908
 10
30.9573083022
 20
149.1473277382
 10
31.5139810595
 20
149.985511826
 10
32.0846891538
 20
150.8072087045
 10
32.6690414502
 20
151.6118552238
 10
33.2666374629
 20
152.3988999194
 10
33.8770676294
 20
153.1678033901
 10
34.4999135913
 20
153.9180386679
 10
35.1347484812
 20
154.649091579
 10
35.7811372149
 20
155.3604610963
 10
36.4386367899
 20
156.0516596827
 10
37.1067965888
 20
156.7222136251
 10
37.7851586882
 20
157.3716633594
 10
38.4732581727
 20
157.9995637852
 10
39.1706234533
 20
158.6054845708
 10
39.8767765906
 20
159.1890104486
 10
40.5912336225
 20
159.7497414988
 10
41.3135048958
 20
160.2872934246
 10
42.043095402
 20
160.8012978146
 10
42.7795051161
 20
161.291402396
 10
43.5222293397
 20
161.7572712755
 10
44.2707590467
 20
162.1985851698
 10
45.0245812322
 20
162.6150416246
 10
45.7831792642
 20
163.0063552213
 10
46.5460332375
 20
163.3722577731
 10
47.31262033
 20
163.7124985087
 10
48.0824151613
 20
164.0268442441
 10
48.8548901524
 20
164.3150795424
 10
49.6295158876
 20
164.5770068616
 10
50.4057614771
 20
164.8124466897
 10
51.1830949208
 20
165.0212376681
 10
51.9609834734
 20
165.2032367018
 10
52.7388940088
 20
165.3583190578
 10
53.5162933861
 20
165.4863784505
 10
54.2926488145
 20
165.5873271142
 10
55.0674282188
 20
165.6610958638
 10
55.8401006038
 20
165.7076341419
 10
56.6101364186
 20
165.7269100536
 10
57.3770079191
 20
165.7189103879
 10
58.1401895298
 20
165.6836406276
 10
58.8991582041
 20
165.6211249448
 10
59.653393783
 20
165.5314061845
 10
60.4023793508
 20
165.4145458355
 10
61.1456015905
 20
165.2706239881
 10
61.8825511345
 20
165.0997392791
 10
62.3287740721
 20
164.9823142939
  0
LWPOLYLINE
  5
C8
330
1F
100
AcDbEntity
  8
0
  6
SLD-Continua
 62
     7
370
    25
100
AcDbPolyline
 90
       49
 70
   128
 43
0.0
 10
42.4577025657
 20
86.6723687893
 10
42.1035665335
 20
86.758034104
 10
41.3733947535
 20
86.9557645587
 10
40.6505011608
 20
87.1802052446
 10
39.9353811906
 20
87.4312023411
 10
39.2285249503
 20
87.7085838276
 10
38.5304168839
 20
88.0121596005
 10
37.8415354398
 20
88.3417216041
 10
37.162352743
 20
88.6970439732
 10
36.4933342714
 20
89.0778831875
 10
35.8349385367
 20
89.4839782388
 10
35.1876167706
 20
89.91505081
 10
34.551812615
 20
90.3708054653
 10
33.9279618183
 20
90.8509298533
 10
33.3164919368
 20
91.3550949208
 10
32.7178220413
 20
91.8829551381
 10
32.1323624303
 20
92.4341487363
 10
31.5605143486
 20
93.0082979548
 10
31.0026697122
 20
93.6050093004
 10
30.45921084
 20
94.2238738169
 10
29.9305101916
 20
94.8644673656
 10
29.416930112
 20
95.5263509156
 10
28.9188225833
 20
96.2090708449
 10
28.4365289835
 20
96.9121592515
 10
27.9703798526
 20
97.6351342737
 10
27.520694666
 20
98.3775004205
 10
27.0877816153
 20
99.1387489112
 10
26.6719373976
 20
99.9183580241
 10
26.2734470117
 20
100.7157934541
 10
25.892583563
 20
101.5305086788
 10
25.5296080763
 20
102.3619453331
 10
25.1847693169
 20
103.2095335918
 10
24.8583036201
 20
104.0726925602
 10
24.550434729
 20
104.9508306724
 10
24.2613736417
 20
105.8433460963
 10
23.9913184662
 20
106.7496271464
 10
23.7404542848
 20
107.6690527029
 10
23.5089530274
 20
108.6009926376
 10
23.2969733533
 20
109.5448082453
 10
23.1046605427
 20
110.499852682
 10
22.9321463973
 20
111.4654714079
 10
22.7795491497
 20
112.4410026362
 10
22.6469733824
 20
113.4257777865
 10
22.5345099561
 20
114.4191219431
 10
22.4422359478
 20
115.4203543175
 10
22.3702145974
 20
116.428788715
 10
22.3184952648
 20
117.4437340052
 10
22.2871133957
 20
118.4644945952
 10
22.2760904978
 20
119.4903709067
  0
LWPOLYLINE
  5
C9
330
1F
100
AcDbEntity
  8
0
  6
SLD-Continua
 62
     7
370
    25
100
AcDbPolyline
 90
       32
 70
   128
 43
0.0
 10
93.8685330557
 20
102.8278098884
 10
93.8607960123
 20
102.2525580929
 10
93.8366547411
 20
101.6824295715
 10
93.796149423
 20
101.1183732469
 10
93.7393474749
 20
100.5613279351
 10
93.6663434383
 20
100.0122207832
 10
93.577258821
 20
99.4719657258
 10
93.4722418956
 20
98.9414619641
 10
93.3514674524
 20
98.4215924692
 10
93.2151365087
 20
97.9132225127
 10
93.0634759737
 20
97.4171982262
 10
92.8967382714
 20
96.9343451931
 10
92.7152009204
 20
96.4654670746
 10
92.5191660716
 20
96.0113442722
 10
92.3089600057
 20
95.5727326284
 10
92.0849325899
 20
95.1503621689
 10
91.8474566958
 20
94.7449358878
 10
91.5969275785
 20
94.3571285771
 10
91.3337622191
 20
93.9875857037
 10
91.0583986303
 20
93.6369223354
 10
90.7712951276
 20
93.3057221166
 10
90.4729295664
 20
92.9945362975
 10
90.1637985469
 20
92.7038828161
 10
89.8444165871
 20
92.4342454366
 10
89.5153152667
 20
92.1860729436
 10
89.1770423423
 20
91.9597783958
 10
88.830160836
 20
91.7557384382
 10
88.4752480977
 20
91.5742926751
 10
88.1128948447
 20
91.4157431051
 10
87.7437041782
 20
91.2803536183
 10
87.3682905795
 20
91.1683495571
 10
87.097225476
 20
91.1028894525
  0
LWPOLYLINE
  5
CA
330
1F
100
AcDbEntity
  8
0
  6
SLD-Continua
 62
     7
370
    25
100
AcDbPolyline
 90
       48
 70
   128
 43
0.0
 10
80.9289822484
 20
119.5620973335
 10
81.0224472026
 20
119.5814955269
 10
81.4084228312
 20
119.6462087106
 10
81.7987199784
 20
119.6870951536
 10
82.1926890329
 20
119.7040868044
 10
82.5896742723
 20
119.6971553821
 10
82.9890149537
 20
119.6663124233
 10
83.390046414
 20
119.6116092631
 10
83.7921011759
 20
119.5331369495
 10
84.194510059
 20
119.431026092
 10
84.5966032933
 20
119.3054466439
 10
84.9977116344
 20
119.1566076199
 10
85.397167477
 20
118.9847567479
 10
85.7943059662
 20
118.7901800566
 10
86.1884661043
 20
118.5732013998
 10
86.5789918506
 20
118.3341819169
 10
86.9652332136
 20
118.0735194325
 10
87.3465473326
 20
117.7916477934
 10
87.7222995478
 20
117.4890361471
 10
88.0918644569
 20
117.166188161
 10
88.4546269555
 20
116.8236411835
 10
88.8099832612
 20
116.4619653504
 10
89.1573419184
 20
116.0817626354
 10
89.4961247832
 20
115.6836658483
 10
89.8257679846
 20
115.268337582
 10
90.1457228643
 20
114.8364691094
 10
90.4554568888
 20
114.3887792329
 10
90.7544545365
 20
113.9260130882
 10
91.0422181552
 20
113.4489409038
 10
91.3182687909
 20
112.9583567194
 10
91.5821469845
 20
112.4550770638
 10
91.8334135367
 20
111.9399395964
 10
92.0716502393
 20
111.4138017126
 10
92.2964605706
 20
110.8775391171
 10
92.5074703562
 20
110.332044366
 10
92.704328391
 20
109.7782253815
 10
92.8867070243
 20
109.2170039406
 10
93.0543027049
 20
108.6493141411
 10
93.2068364862
 20
108.0761008466
 10
93.3440544908
 20
107.498318114
 10
93.465728333
 20
106.9169276056
 10
93.5716554986
 20
106.3328969887
 10
93.6616596823
 20
105.7471983245
 10
93.7355910809
 20
105.1608064506
 10
93.7933266431
 20
104.5746973585
 10
93.8347702737
 20
103.9898465689
 10
93.8598529938
 20
103.4072275083
 10
93.8685330557
 20
102.8278098884
  0
LINE
  5
CB
330
1F
100
AcDbEntity
  8
0
  6
SLD-Continua
 62
     7
370
    25
100
AcDbLine
 10
16.6133619769
 20
206.9380937029
 30
0.0
 11
21.5721103762
 21
208.0124623761
 31
0.0
  0
LWPOLYLINE
  5
CC
330
1F
100
AcDbEntity
  8
0
  6
SLD-Continua
 62
     7
370
    25
100
AcDbPolyline
 90
       86
 70
   128
 43
0.0
 10
292.3189955191
 20
132.5773832159
 10
292.3912199425
 20
132.5951693637
 10
292.8060296116
 20
132.7120838653
 10
293.2147407581
 20
132.8526527263
 10
293.6167817624
 20
133.0166793483
 10
294.0115903339
 20
133.2039343253
 10
294.3986142971
 20
133.4141557644
 10
294.777312364
 20
133.6470496517
 10
295.1471548911
 20
133.9022902642
 10
295.5076246202
 20
134.1795206247
 10
295.8582174017
 20
134.4783530016
 10
296.1984429
 20
134.7983694507
 10
296.5278252789
 20
135.1391224
 10
296.8459038674
 20
135.5001352759
 10
297.1522338038
 20
135.8809031691
 10
297.446386658
 20
136.2808935413
 10
297.7279510307
 20
136.6995469698
 10
297.9965331286
 20
137.1362779299
 10
298.2517573153
 20
137.5904756139
 10
298.4932666368
 20
138.0615047852
 10
298.7207233205
 20
138.548706667
 10
298.9338092475
 20
139.0513998634
 10
299.132226398
 20
139.5688813125
 10
299.3156972676
 20
140.1004272696
 10
299.4839652557
 20
140.6452943198
 10
299.6367950244
 20
141.2027204171
 10
299.7739728273
 20
141.7719259508
 10
299.895306809
 20
142.3521148354
 10
300.0006272728
 20
142.9424756244
 10
300.0897869186
 20
143.5421826448
 10
300.1626610486
 20
144.150397152
 10
300.2191477417
 20
144.7662685032
 10
300.2591679961
 20
145.3889353465
 10
300.2826658399
 20
146.0175268261
 10
300.2896084093
 20
146.6511637999
 10
300.2799859944
 20
147.2889600693
 10
300.253812053
 20
147.9300236186
 10
300.2111231918
 20
148.5734578624
 10
300.1519791151
 20
149.2183628998
 10
300.076462541
 20
149.8638367728
 10
299.9846790865
 20
150.5089767277
 10
299.8767571189
 20
151.152880478
 10
299.7528475769
 20
151.7946474661
 10
299.6131237593
 20
152.4333801229
 10
299.4577810823
 20
153.0681851229
 10
299.2870368067
 20
153.6981746339
 10
299.101129734
 20
154.3224675587
 10
298.9003198718
 20
154.9401907672
 10
298.6848880711
 20
155.5504803176
 10
298.4551356325
 20
156.1524826647
 10
298.2113838858
 20
156.7453558539
 10
297.9539737397
 20
157.3282706984
 10
297.6832652056
 20
157.900411939
 10
297.3996368939
 20
158.4609793846
 10
297.1034854844
 20
159.0091890308
 10
296.7952251717
 20
159.5442741569
 10
296.4752870856
 20
160.0654863979
 10
296.1441186885
 20
160.5720967915
 10
295.8021831494
 20
161.0633967971
 10
295.449958696
 20
161.5386992873
 10
295.087937946
 20
161.9973395086
 10
294.7166272183
 20
162.4386760111
 10
294.3365458245
 20
162.8620915459
 10
293.9482253427
 20
163.266993928
 10
293.5522088743
 20
163.6528168648
 10
293.149050284
 20
164.0190207481
 10
292.7393134257
 20
164.3650934086
 10
292.3235713534
 20
164.6905508325
 10
291.90240552
 20
164.994937838
 10
291.4764049639
 20
165.2778287125
 10
291.0461654855
 20
165.5388278074
 10
290.6122888136
 20
165.7775700919
 10
290.1753817639
 20
165.9937216635
 10
289.7360553905
 20
166.1869802144
 10
289.294924131
 20
166.3570754552
 10
288.8526049473
 20
166.5037694924
 10
288.4097164629
 20
166.6268571609
 10
287.9668780974
 20
166.7261663117
 10
287.5247092002
 20
166.8015580518
 10
287.0838281845
 20
166.8529269391
 10
286.6448516622
 20
166.8802011296
 10
286.2083935819
 20
166.8833424778
 10
285.7750643694
 20
166.8623465904
 10
285.345470075
 20
166.8172428318
 10
284.9202115251
 20
166.7480942839
 10
284.9157135187
 20
166.7472298298
  0
LWPOLYLINE
  5
CD
330
1F
100
AcDbEntity
  8
0
  6
SLD-Continua
 62
     7
370
    25
100
AcDbPolyline
 90
       33
 70
   128
 43
0.0
 10
95.9403171884
 20
123.3778415405
 10
96.3111250303
 20
123.935773322
 10
96.6946771832
 20
124.4785463385
 10
97.0904793158
 20
125.0054610515
 10
97.4980213091
 20
125.5158383607
 10
97.9167779132
 20
126.0090204797
 10
98.3462094247
 20
126.4843717837
 10
98.7857623821
 20
126.9412796288
 10
99.2348702792
 20
127.3791551413
 10
99.692954295
 20
127.7974339767
 10
100.15942404
 20
128.1955770475
 10
100.6336783169
 20
128.5730712175
 10
101.1151058957
 20
128.9294299632
 10
101.6030863009
 20
129.2641940009
 10
102.096990612
 20
129.576931879
 10
102.5961822734
 20
129.8672405333
 10
103.1000179149
 20
130.1347458073
 10
103.6078481814
 20
130.3791029338
 10
104.119018569
 20
130.5999969795
 10
104.6328702693
 20
130.797143251
 10
105.1487410182
 20
130.9702876614
 10
105.665965949
 20
131.1192070582
 10
106.1838784501
 20
131.2437095105
 10
106.7018110235
 20
131.3436345566
 10
107.2190961456
 20
131.4188534107
 10
107.7350671269
 20
131.469269129
 10
108.2490589719
 20
131.4948167345
 10
108.7604092356
 20
131.4954633009
 10
109.2684588778
 20
131.4712079948
 10
109.772553112
 20
131.4220820771
 10
110.2720422497
 20
131.3481488624
 10
110.7662825374
 20
131.2495036375
 10
111.1369643551
 20
131.1583592972
  0
ARC
  5
CE
330
1F
100
AcDbEntity
  8
0
  6
SLD-Continua
 62
     7
370
    25
100
AcDbCircle
 10
101.3896246892
 20
108.2787023773
 30
0.0
 40
16.05238162105327
100
AcDbArc
 50
109.8446078205
 51
120.9796894298
  0
ARC
  5
CF
330
1F
100
AcDbEntity
  8
0
  6
SLD-Continua
 62
     7
370
    25
100
AcDbCircle
 10
103.8711223931
 20
102.9811483034
 30
0.0
 40
10.13294592649066
100
AcDbArc
 50
243.4255830787
 51
256.517133768
  0
LWPOLYLINE
  5
D0
330
1F
100
AcDbEntity
  8
0
  6
SLD-Continua
 62
     7
370
    25
100
AcDbPolyline
 90
       37
 70
   128
 43
0.0
 10
51.2263134966
 20
119.1391261522
 10
51.2358146121
 20
118.4600345679
 10
51.263194117
 20
117.7856372707
 10
51.3084190209
 20
117.1167468569
 10
51.3714348315
 20
116.4541692873
 10
51.4521656196
 20
115.7987029163
 10
51.5505141109
 20
115.1511375298
 10
51.6663618031
 20
114.5122533938
 10
51.7995691088
 20
113.8828203137
 10
51.9499755235
 20
113.2635967075
 10
52.1173998192
 20
112.6553286913
 10
52.3016402627
 20
112.0587491807
 10
52.5024748586
 20
111.4745770076
 10
52.7196616168
 20
110.903516054
 10
52.9529388443
 20
110.3462544038
 10
53.2020254601
 20
109.8034635139
 10
53.4666213343
 20
109.2757974051
 10
53.7464076494
 20
108.7638918738
 10
54.0410472847
 20
108.2683637265
 10
54.3501852225
 20
107.7898100359
 10
54.6734489755
 20
107.3288074219
 10
55.0104490362
 20
106.8859113569
 10
55.3607793457
 20
106.461655496
 10
55.7240177832
 20
106.0565510345
 10
56.0997266748
 20
105.6710860918
 10
56.4874533205
 20
105.305725123
 10
56.8867305399
 20
104.9609083598
 10
57.297077235
 20
104.6370512794
 10
57.7179989701
 20
104.3345441043
 10
58.1489885672
 20
104.0537513323
 10
58.5895267174
 20
103.7950112967
 10
59.0390826065
 20
103.558635759
 10
59.4971145548
 20
103.3449095335
 10
59.9630706695
 20
103.1540901435
 10
60.4363895096
 20
102.9864075115
 10
60.9165007628
 20
102.8420636821
 10
61.2467695638
 20
102.7572811053
  0
LWPOLYLINE
  5
D1
330
1F
100
AcDbEntity
  8
0
  6
SLD-Continua
 62
     7
370
    25
100
AcDbPolyline
 90
       57
 70
   128
 43
0.0
 10
71.1753598178
 20
141.8848823259
 10
70.9882994727
 20
141.9332214982
 10
70.4990866482
 20
142.0422398641
 10
70.0045414706
 20
142.1275377966
 10
69.5052598282
 20
142.1890125183
 10
69.0018433166
 20
142.2265899568
 10
68.4948985135
 20
142.2402248345
 10
67.9850362478
 20
142.2299007222
 10
67.472870864
 20
142.1956300597
 10
66.9590194812
 20
142.1374541405
 10
66.4441012506
 20
142.0554430621
 10
65.9287366084
 20
141.9496956414
 10
65.4135465288
 20
141.8203392958
 10
64.8991517759
 20
141.6675298897
 10
64.3861721552
 20
141.4914515464
 10
63.8752257671
 20
141.2923164267
 10
63.3669282624
 20
141.0703644729
 10
62.8618920999
 20
140.8258631198
 10
62.3607258088
 20
140.5591069724
 10
61.8640332555
 20
140.2704174512
 10
61.3724129159
 20
139.9601424046
 10
60.8864571541
 20
139.6286556898
 10
60.406751509
 20
139.2763567224
 10
59.9338739885
 20
138.9036699954
 10
59.4683943733
 20
138.5110445671
 10
59.0108735299
 20
138.0989535207
 10
58.5618627354
 20
137.6678933937
 10
58.1219030129
 20
137.21838358
 10
57.6915244794
 20
136.750965704
 10
57.2712457077
 20
136.2662029678
 10
56.8615731009
 20
135.7646794727
 10
56.4630002825
 20
135.2469995155
 10
56.0760075019
 20
134.7137868602
 10
55.7010610551
 20
134.1656839865
 10
55.3386127234
 20
133.6033513157
 10
54.9890992289
 20
133.0274664148
 10
54.652941708
 20
132.4387231804
 10
54.3305452044
 20
131.8378310021
 10
54.0222981808
 20
131.2255139082
 10
53.7285720508
 20
130.6025096932
 10
53.4497207315
 20
129.9695690285
 10
53.1860802171
 20
129.3274545585
 10
52.9379681738
 20
128.6769399809
 10
52.7056835574
 20
128.0188091153
 10
52.4895062527
 20
127.353854958
 10
52.2896967365
 20
126.6828787271
 10
52.1064957636
 20
126.0066888965
 10
51.9401240772
 20
125.3261002224
 10
51.7907821419
 20
124.6419327612
 10
51.6586499033
 20
123.9550108813
 10
51.5438865704
 20
123.2661622701
 10
51.4466304241
 20
122.5762169365
 10
51.3669986505
 20
121.886006211
 10
51.3050871996
 20
121.1963617436
 10
51.2609706699
 20
120.5081145022
 10
51.2347022184
 20
119.8220937713
 10
51.2263134966
 20
119.1391261522
  0
LINE
  5
D2
330
1F
100
AcDbEntity
  8
0
  6
SLD-Continua
 62
     7
370
    25
100
AcDbLine
 10
96.2629093286
 20
122.7690731888
 30
0.0
 11
95.9683449598
 21
122.6568366635
 31
0.0
  0
LINE
  5
D3
330
1F
100
AcDbEntity
  8
0
  6
SLD-Continua
 62
     7
370
    25
100
AcDbLine
 10
116.2644567797
 20
127.054217811
 30
0.0
 11
116.3413251729
 21
127.1192880521
 31
0.0
  0
LWPOLYLINE
  5
D4
330
1F
100
AcDbEntity
  8
0
  6
SLD-Continua
 62
     7
370
    25
100
AcDbPolyline
 90
       12
 70
   128
 43
0.0
 10
115.5781330145
 20
127.339824556
 10
115.7456388653
 20
127.4090898147
 10
115.9012591265
 20
127.4756499995
 10
116.0649197095
 20
127.5485106244
 10
116.2099281471
 20
127.6163186593
 10
116.3365073388
 20
127.6791568743
 10
116.4394303523
 20
127.7344361822
 10
116.5000110948
 20
127.7703724254
 10
116.5439590276
 20
127.8002502174
 10
116.5700434353
 20
127.8235066532
 10
116.575640469
 20
127.8385710631
 10
116.5723256401
 20
127.8389562802
  0
ARC
  5
D5
330
1F
100
AcDbEntity
  8
0
  6
SLD-Continua
 62
     7
370
    25
100
AcDbCircle
 10
105.2151742321
 20
105.1998137899
 30
0.0
 40
11.00178919781187
100
AcDbArc
 50
254.9753834192
 51
309.4742700866
  0
LWPOLYLINE
  5
D6
330
1F
100
AcDbEntity
  8
0
  6
SLD-Continua
 62
     7
370
    25
100
AcDbPolyline
 90
        3
 70
   128
 43
0.0
 10
116.3413251729
 20
127.1192880521
 10
116.4288469977
 20
127.1559686535
 10
116.4440383015
 20
127.165361359
  0
LWPOLYLINE
  5
D7
330
1F
100
AcDbEntity
  8
0
  6
SLD-Continua
 62
     7
370
    25
100
AcDbPolyline
 90
      122
 70
   128
 43
0.0
 10
54.0212262339
 20
83.9877806628
 10
53.3763289941
 20
84.1638243811
 10
52.6578384366
 20
84.3868980328
 10
51.9470741535
 20
84.6363663442
 10
51.2445232673
 20
84.9120583421
 10
50.5506672712
 20
85.213785081
 10
49.8659816995
 20
85.5413397725
 10
49.1909358014
 20
85.894497927
 10
48.5259922197
 20
86.2730175074
 10
47.8716066735
 20
86.6766390955
 10
47.228227646
 20
87.105086069
 10
46.596296077
 20
87.5580647919
 10
45.9762450609
 20
88.0352648152
 10
45.3684995496
 20
88.5363590897
 10
44.7734760616
 20
89.0610041906
 10
44.1915823962
 20
89.6088405523
 10
43.6232173543
 20
90.179492715
 10
43.0687704649
 20
90.7725695824
 10
42.5286217182
 20
91.3876646891
 10
42.0031413052
 20
92.0243564797
 10
41.4926893639
 20
92.6822085974
 10
40.9976157326
 20
93.3607701833
 10
40.5182597099
 20
94.0595761851
 10
40.0549498226
 20
94.7781476762
 10
39.6080036002
 20
95.5159921834
 10
39.1777273572
 20
96.2726040251
 10
38.7644159835
 20
97.0474646573
 10
38.3683527421
 20
97.8400430291
 10
37.9898090748
 20
98.6497959471
 10
37.6290444168
 20
99.4761684469
 10
37.2863060179
 20
100.3185941741
 10
36.961828774
 20
101.1764957723
 10
36.6558350656
 20
102.0492852785
 10
36.3685346056
 20
102.9363645264
 10
36.1001242951
 20
103.8371255562
 10
35.8507880894
 20
104.7509510313
 10
35.620696871
 20
105.6772146613
 10
35.4100083329
 20
106.6152816314
 10
35.2188668705
 20
107.5645090374
 10
35.0474034826
 20
108.5242463262
 10
34.8957356816
 20
109.4938357418
 10
34.7639674132
 20
110.4726127761
 10
34.6521889846
 20
111.4599066242
 10
34.5604770033
 20
112.4550406442
 10
34.488894324
 20
113.4573328209
 10
34.4374900059
 20
114.4660962334
 10
34.4062992791
 20
115.4806395256
 10
34.3953435199
 20
116.5002673802
 10
34.4046302371
 20
117.5242809952
 10
34.4341530659
 20
118.5519785628
 10
34.4838917729
 20
119.5826557504
 10
34.5538122696
 20
120.6156061835
 10
34.643866636
 20
121.6501219293
 10
34.7539931534
 20
122.6854939824
 10
34.8841163465
 20
123.7210127506
 10
35.0341470355
 20
124.755968541
 10
35.2039823966
 20
125.7896520466
 10
35.3935060334
 20
126.8213548324
 10
35.6025880558
 20
127.8503698208
 10
35.8310851693
 20
128.8759917764
 10
36.0788407735
 20
129.897517789
 10
36.3456850691
 20
130.9142477558
 10
36.6314351742
 20
131.9254848609
 10
36.9358952502
 20
132.9305360528
 10
37.2588566351
 20
133.9287125197
 10
37.6000979875
 20
134.9193301612
 10
37.9593854376
 20
135.9017100576
 10
38.3364727476
 20
136.8751789347
 10
38.7311014808
 20
137.8390696256
 10
39.1430011784
 20
138.7927215277
 10
39.5718895448
 20
139.7354810557
 10
40.0174726415
 20
140.6667020892
 10
40.4794450879
 20
141.585746416
 10
40.9574902714
 20
142.4919841689
 10
41.4512805635
 20
143.3847942578
 10
41.9604775451
 20
144.2635647953
 10
42.4847322381
 20
145.1276935159
 10
43.0236853444
 20
145.9765881891
 10
43.5769674924
 20
146.8096670248
 10
44.1441994903
 20
147.6263590723
 10
44.7249925856
 20
148.4261046118
 10
45.3189487317
 20
149.2083555376
 10
45.9256608607
 20
149.972575734
 10
46.5447131624
 20
150.7182414426
 10
47.1756813693
 20
151.4448416214
 10
47.8181330474
 20
152.151878295
 10
48.4716278922
 20
152.8388668957
 10
49.1357180312
 20
153.5053365958
 10
49.8099483301
 20
154.1508306303
 10
50.4938567051
 20
154.7749066099
 10
51.1869744396
 20
155.3771368241
 10
51.8888265052
 20
155.9571085342
 10
52.5989318878
 20
156.5144242568
 10
53.3168039165
 20
157.0487020353
 10
54.0419505976
 20
157.5595757026
 10
54.7738749519
 20
158.0466951314
 10
55.512075355
 20
158.5097264743
 10
56.2560458812
 20
158.9483523927
 10
57.0052766502
 20
159.3622722744
 10
57.7592541767
 20
159.7512024393
 10
58.5174617222
 20
160.1148763342
 10
59.2793796491
 20
160.4530447151
 10
60.044485777
 20
160.7654758184
 10
60.8122557402
 20
161.0519555192
 10
61.5821633476
 20
161.3122874789
 10
62.3536809429
 20
161.5462932787
 10
63.1262797667
 20
161.753812543
 10
63.8994303182
 20
161.9347030482
 10
64.6726027186
 20
162.0888408212
 10
65.4452670743
 20
162.2161202235
 10
66.2168938396
 20
162.3164540242
 10
66.9869541801
 20
162.3897734596
 10
67.7549203349
 20
162.4360282801
 10
68.5202659785
 20
162.4551867851
 10
69.282466581
 20
162.4472358442
 10
70.0409997683
 20
162.4121809067
 10
70.7953456797
 20
162.3500459973
 10
71.5449873241
 20
162.2608737004
 10
72.2894109346
 20
162.1447251301
 10
73.0281063204
 20
162.0016798888
 10
73.7605672166
 20
161.8318360127
 10
73.774303378
 20
161.8283797576
  0
LWPOLYLINE
  5
D8
330
1F
100
AcDbEntity
  8
0
  6
SLD-Continua
 62
     7
370
    25
100
AcDbPolyline
 90
      195
 70
   128
 43
0.0
 10
92.790001711
 20
136.083076982
 10
92.7331880032
 20
136.4309318997
 10
92.5685561927
 20
137.3524305904
 10
92.3850303368
 20
138.2638381412
 10
92.182736215
 20
139.1645299189
 10
91.9618124695
 20
140.0538886344
 10
91.7224105104
 20
140.9313047655
 10
91.4646944119
 20
141.7961769751
 10
91.1888407998
 20
142.647912523
 10
90.8950387303
 20
143.4859276722
 10
90.5834895607
 20
144.3096480889
 10
90.2544068111
 20
145.1185092364
 10
89.9080160186
 20
145.9119567616
 10
89.544554582
 20
146.6894468752
 10
89.1642715997
 20
147.4504467243
 10
88.7674276986
 20
148.1944347577
 10
88.3542948557
 20
148.920901083
 10
87.9251562116
 20
149.6293478167
 10
87.4803058765
 20
150.3192894246
 10
87.0200487286
 20
150.9902530552
 10
86.5447002052
 20
151.6417788636
 10
86.0545860864
 20
152.2734203266
 10
85.5500422719
 20
152.8847445487
 10
85.0314145509
 20
153.4753325587
 10
84.4990583648
 20
154.0447795971
 10
83.9533385641
 20
154.5926953934
 10
83.3946291579
 20
155.1187044335
 10
82.8233130576
 20
155.622446217
 10
82.2397818147
 20
156.1035755045
 10
81.6444353525
 20
156.561762554
 10
81.0376816916
 20
156.9966933469
 10
80.4199366708
 20
157.4080698036
 10
79.7916236615
 20
157.795609987
 10
79.1531732781
 20
158.1590482965
 10
78.5050230827
 20
158.4981356496
 10
77.847617285
 20
158.8126396528
 10
77.1814064382
 20
159.1023447608
 10
76.5068471297
 20
159.3670524241
 10
75.824401669
 20
159.6065812254
 10
75.1345377699
 20
159.8207670035
 10
74.4377282309
 20
160.0094629662
 10
73.7344506103
 20
160.1725397908
 10
73.0251868994
 20
160.3098857125
 10
72.3104231923
 20
160.4214066013
 10
71.5906493522
 20
160.5070260264
 10
70.8663586762
 20
160.5666853084
 10
70.138047557
 20
160.60034356
 10
69.4062151425
 20
160.6079777133
 10
68.6713629942
 20
160.5895825363
 10
67.933994743
 20
160.5451706363
 10
67.1946157444
 20
160.4747724507
 10
66.4537327316
 20
160.3784362272
 10
65.711853469
 20
160.2562279896
 10
64.9694864036
 20
160.1082314935
 10
64.2271403165
 20
159.9345481682
 10
63.4853239749
 20
159.7352970476
 10
62.7445457824
 20
159.5106146884
 10
62.0053134316
 20
159.2606550768
 10
61.2681335552
 20
158.9855895226
 10
60.5335113797
 20
158.6856065419
 10
59.8019503783
 20
158.3609117281
 10
59.0739519264
 20
158.0117276108
 10
58.3500149577
 20
157.6382935034
 10
57.6306356226
 20
157.240865339
 10
56.9163069476
 20
156.8197154949
 10
56.2075184981
 20
156.3751326062
 10
55.504756042
 20
155.9074213679
 10
54.8085012179
 20
155.4169023258
 10
54.1192312038
 20
154.9039116572
 10
53.4374183912
 20
154.3688009403
 10
52.7635300603
 20
153.8119369132
 10
52.0980280606
 20
153.2337012228
 10
51.441368494
 20
152.6344901628
 10
50.7940014021
 20
152.0147144027
 10
50.1563704579
 20
151.3747987057
 10
49.528912662
 20
150.7151816381
 10
48.9120580424
 20
150.0363152686
 10
48.3062293605
 20
149.3386648581
 10
47.7118418212
 20
148.6227085415
 10
47.1293027878
 20
147.8889369994
 10
46.5590115036
 20
147.1378531222
 10
46.0013588176
 20
146.3699716653
 10
45.4567269173
 20
145.5858188963
 10
44.9254890661
 20
144.7859322343
 10
44.4080093478
 20
143.9708598817
 10
43.9046424173
 20
143.1411604483
 10
43.4157332571
 20
142.2974025687
 10
42.9416169411
 20
141.4401645124
 10
42.482618405
 20
140.5700337875
 10
42.0390522233
 20
139.6876067383
 10
41.6112223943
 20
138.793488136
 10
41.1994221311
 20
137.888290765
 10
40.803933661
 20
136.9726350022
 10
40.4250280321
 20
136.0471483925
 10
40.0629649274
 20
135.1124652181
 10
39.7179924868
 20
134.1692260641
 10
39.3903471373
 20
133.2180773796
 10
39.0802534305
 20
132.2596710344
 10
38.7879238893
 20
131.2946638722
 10
38.5135588616
 20
130.3237172609
 10
38.2573463836
 20
129.3474966387
 10
38.0194620506
 20
128.3666710584
 10
37.8000688964
 20
127.381912729
 10
37.5993172823
 20
126.3938965545
 10
37.4173447934
 20
125.403299672
 10
37.2542761445
 20
124.410800987
 10
37.1102230947
 20
123.4170807086
 10
36.9852843709
 20
122.422819883
 10
36.8795455997
 20
121.4286999269
 10
36.7930792492
 20
120.4354021605
 10
36.7259445792
 20
119.4436073405
 10
36.6781876004
 20
118.4539951934
 10
36.6498410431
 20
117.4672439501
 10
36.6409243345
 20
116.4840298804
 10
36.6514435858
 20
115.5050268303
 10
36.6813915875
 20
114.5309057595
 10
36.7307478148
 20
113.562334282
 10
36.7994784414
 20
112.5999762082
 10
36.8875363628
 20
111.6444910903
 10
36.9948612284
 20
110.6965337701
 10
37.1213794832
 20
109.7567539302
 10
37.2670044179
 20
108.8257956487
 10
37.4316362284
 20
107.904296958
 10
37.6151620843
 20
106.9928894072
 10
37.8174562062
 20
106.0921976295
 10
38.0383799517
 20
105.202838914
 10
38.2777819107
 20
104.3254227829
 10
38.5354980092
 20
103.4605505733
 10
38.8113516213
 20
102.6088150254
 10
39.1051536908
 20
101.7707998762
 10
39.4167028605
 20
100.9470794595
 10
39.74578561
 20
100.138218312
 10
40.0921764025
 20
99.3447707868
 10
40.4556378391
 20
98.5672806732
 10
40.8359208214
 20
97.8062808241
 10
41.2327647225
 20
97.0622927907
 10
41.6458975655
 20
96.3358264654
 10
42.0750362095
 20
95.6273797318
 10
42.5198865446
 20
94.9374381239
 10
42.9801436925
 20
94.2664744932
 10
43.4554922159
 20
93.6149486848
 10
43.9456063347
 20
92.9833072218
 10
44.4501501492
 20
92.3719829997
 10
44.9687778702
 20
91.7813949898
 10
45.5011340563
 20
91.2119479513
 10
46.046853857
 20
90.664032155
 10
46.6055632632
 20
90.138023115
 10
47.1768793635
 20
89.6342813314
 10
47.7604106064
 20
89.153152044
 10
48.3557570686
 20
88.6949649945
 10
48.9625107295
 20
88.2600342015
 10
49.5802557504
 20
87.8486577448
 10
50.2085687596
 20
87.4611175614
 10
50.847019143
 20
87.0976792519
 10
51.4951693384
 20
86.7585918988
 10
52.1525751361
 20
86.4440878956
 10
52.818785983
 20
86.1543827876
 10
53.4933452914
 20
85.8896751243
 10
54.1757907522
 20
85.6501463231
 10
54.8656546512
 20
85.4359605449
 10
55.5624641902
 20
85.2472645822
 10
56.2657418108
 20
85.0841877576
 10
56.9750055217
 20
84.9468418359
 10
57.6897692288
 20
84.8353209471
 10
58.4095430689
 20
84.749701522
 10
59.1338337449
 20
84.69004224
 10
59.8621448641
 20
84.6563839884
 10
60.5939772786
 20
84.6487498351
 10
61.3288294269
 20
84.6671450121
 10
62.0661976781
 20
84.7115569122
 10
62.8055766767
 20
84.7819550977
 10
63.5464596895
 20
84.8782913212
 10
64.2883389521
 20
85.0004995588
 10
65.0307060175
 20
85.1484960549
 10
65.7730521046
 20
85.3221793802
 10
66.5148684462
 20
85.5214305009
 10
67.2556466387
 20
85.74611286
 10
67.9948789896
 20
85.9960724716
 10
68.7320588659
 20
86.2711380258
 10
69.4666810414
 20
86.5711210065
 10
70.1982420428
 20
86.8958158203
 10
70.9262404948
 20
87.2449999376
 10
71.6501774634
 20
87.618434045
 10
72.3695567985
 20
88.0158622094
 10
73.0838854735
 20
88.4370120535
 10
73.792673923
 20
88.8815949422
 10
74.4954363791
 20
89.3493061805
 10
75.1916912032
 20
89.8398252226
 10
75.8809612173
 20
90.3528158912
 10
76.56277403
 20
90.8879266081
 10
77.2366623608
 20
91.4447906352
 10
77.9021643605
 20
92.0230263256
 10
78.5588239271
 20
92.6222373856
 10
79.206191019
 20
93.2420131457
 10
79.5590069679
 20
93.5923934522
  0
LWPOLYLINE
  5
D9
330
1F
100
AcDbEntity
  8
0
  6
SLD-Continua
 62
     7
370
    25
100
AcDbPolyline
 90
      120
 70
   128
 43
0.0
 10
65.8436093322
 20
101.6578099038
 10
65.5528291211
 20
101.5784616989
 10
65.0173920695
 20
101.4506247228
 10
64.4819357006
 20
101.3464405818
 10
63.9470580509
 20
101.2660256364
 10
63.4133565107
 20
101.2094696999
 10
62.8814271564
 20
101.176835938
 10
62.3518640855
 20
101.1681607984
 10
61.8252587522
 20
101.1834539703
 10
61.3021993078
 20
101.222698373
 10
60.7832699429
 20
101.2858501756
 10
60.2690502354
 20
101.3728388455
 10
59.7601145032
 20
101.4835672276
 10
59.2570311627
 20
101.6179116523
 10
58.7603620939
 20
101.775722074
 10
58.2706620128
 20
101.9568222386
 10
57.7884778519
 20
102.1610098802
 10
57.3143481495
 20
102.3880569474
 10
56.8488024481
 20
102.6377098575
 10
56.3923607029
 20
102.90968978
 10
55.945532701
 20
103.203692948
 10
55.5088174925
 20
103.5193909974
 10
55.0827028326
 20
103.8564313338
 10
54.667664637
 20
104.214437526
 10
54.2641664505
 20
104.5930097268
 10
53.8726589291
 20
104.9917251193
 10
53.4935793369
 20
105.4101383892
 10
53.1273510574
 20
105.8477822222
 10
52.7743831209
 20
106.3041678259
 10
52.4350697476
 20
106.7787854758
 10
52.1097899074
 20
107.2711050845
 10
51.7989068962
 20
107.7805767937
 10
51.502767931
 20
108.3066315884
 10
51.221703761
 20
108.8486819326
 10
50.9560282992
 20
109.4061224249
 10
50.7060382712
 20
109.9783304756
 10
50.472012884
 20
110.5646670011
 10
50.2542135141
 20
111.1644771382
 10
50.0528834156
 20
111.7770909755
 10
49.8682474487
 20
112.4018243014
 10
49.7005118281
 20
113.0379793684
 10
49.5498638932
 20
113.6848456724
 10
49.4164718985
 20
114.3417007462
 10
49.3004848258
 20
115.0078109664
 10
49.202032218
 20
115.6824323727
 10
49.121224034
 20
116.3648114991
 10
49.0581505264
 20
117.054186215
 10
49.0128821401
 20
117.7497865767
 10
48.9854694341
 20
118.4508356874
 10
48.9759430251
 20
119.1565505645
 10
48.9843135527
 20
119.8661430143
 10
49.0105716681
 20
120.5788205128
 10
49.0546880444
 20
121.2937870898
 10
49.1166134093
 20
122.0102442188
 10
49.1962785999
 20
122.7273917086
 10
49.2935946404
 20
123.4444285968
 10
49.4084528412
 20
124.1605540447
 10
49.5407249204
 20
124.8749682313
 10
49.6902631468
 20
125.586873247
 10
49.8569005054
 20
126.2954739848
 10
50.0404508834
 20
126.9999790279
 10
50.2407092784
 20
127.699601534
 10
50.4574520274
 20
128.3935601138
 10
50.6904370564
 20
129.0810797042
 10
50.9394041507
 20
129.7613924334
 10
51.2040752459
 20
130.4337384787
 10
51.484154738
 20
131.0973669154
 10
51.779329814
 20
131.751536555
 10
52.089270801
 20
132.3955167735
 10
52.4136315343
 20
133.0285883269
 10
52.7520497444
 20
133.6500441552
 10
53.1041474612
 20
134.2591901714
 10
53.4695314366
 20
134.8553460369
 10
53.8477935831
 20
135.4378459216
 10
54.2385114301
 20
136.0060392476
 10
54.6412485957
 20
136.5592914151
 10
55.0555552737
 20
137.0969845121
 10
55.4809687364
 20
137.618518004
 10
55.9170138512
 20
138.1233094042
 10
56.3632036112
 20
138.6107949251
 10
56.8190396794
 20
139.0804301076
 10
57.284012945
 20
139.5316904289
 10
57.7576040922
 20
139.9640718889
 10
58.2392841798
 20
140.3770915726
 10
58.7285152328
 20
140.7702881895
 10
59.2247508423
 20
141.1432225893
 10
59.7274367765
 20
141.4954782517
 10
60.2360115993
 20
141.826661752
 10
60.7499072973
 20
142.1364032005
 10
61.2685499146
 20
142.4243566555
 10
61.7913601934
 20
142.6902005096
 10
62.3177542215
 20
142.9336378492
 10
62.8471440836
 20
143.1543967857
 10
63.3789385188
 20
143.3522307597
 10
63.9125435806
 20
143.5269188157
 10
64.4473633
 20
143.6782658495
 10
64.9828003516
 20
143.8061028256
 10
65.5182567205
 20
143.9102869666
 10
66.0531343702
 20
143.990701912
 10
66.5868359104
 20
144.0472578485
 10
67.1187652647
 20
144.0798916105
 10
67.6483283356
 20
144.08856675
 10
68.1749336689
 20
144.0732735782
 10
68.6979931133
 20
144.0340291754
 10
69.2169224783
 20
143.9708773728
 10
69.7311421857
 20
143.8838887029
 10
70.2400779179
 20
143.7731603208
 10
70.7431612584
 20
143.6388158961
 10
71.2398303272
 20
143.4810054744
 10
71.7295304083
 20
143.2999053098
 10
72.2117145692
 20
143.0957176682
 10
72.6858442716
 20
142.868670601
 10
73.151389973
 20
142.6190176909
 10
73.6078317182
 20
142.3470377684
 10
74.0546597201
 20
142.0530346004
 10
74.4913749286
 20
141.737336551
 10
74.9174895885
 20
141.4002962146
 10
75.3325277841
 20
141.0422900224
 10
75.7360259706
 20
140.6637178216
 10
75.7402673183
 20
140.6595691858
  0
LINE
  5
DA
330
1F
100
AcDbEntity
  8
0
  6
SLD-Continua
 62
     7
370
    25
100
AcDbLine
 10
329.0972714493
 20
184.3359011429
 30
0.0
 11
331.6307465333
 21
184.3359011429
 31
0.0
  0
LINE
  5
DB
330
1F
100
AcDbEntity
  8
0
  6
SLD-Continua
 62
     7
370
    25
100
AcDbLine
 10
331.6307465333
 20
202.5359011429
 30
0.0
 11
329.0972714493
 21
202.5359011429
 31
0.0
  0
ARC
  5
DC
330
1F
100
AcDbEntity
  8
0
  6
SLD-Continua
 62
     7
370
    25
100
AcDbCircle
 10
329.0972714493
 20
202.0359024395
 30
0.0
 40
0.4999987034148319
100
AcDbArc
 50
90.0
 51
173.789812745
  0
ARC
  5
DD
330
1F
100
AcDbEntity
  8
0
  6
SLD-Continua
 62
     7
370
    25
100
AcDbCircle
 10
329.0972714493
 20
184.8358998463
 30
0.0
 40
0.4999987034148857
100
AcDbArc
 50
186.210187255
 51
270.0
  0
ARC
  5
DE
330
1F
100
AcDbEntity
  8
0
  6
SLD-Continua
 62
     7
370
    25
100
AcDbCircle
 10
408.1307465332
 20
193.4359011429
 30
0.0
 40
79.9999999999605
100
AcDbArc
 50
173.789812745
 51
180.0
  0
ARC
  5
DF
330
1F
100
AcDbEntity
  8
0
  6
SLD-Continua
 62
     7
370
    25
100
AcDbCircle
 10
408.1307465332
 20
193.4359011429
 30
0.0
 40
79.9999999999605
100
AcDbArc
 50
180.0
 51
186.210187255
  0
LINE
  5
E0
330
1F
100
AcDbEntity
  8
0
  6
SLD-Continua
 62
     7
370
    25
100
AcDbLine
 10
331.6307465333
 20
184.4359011429
 30
0.0
 11
498.6307465333
 21
184.4359011429
 31
0.0
  0
LINE
  5
E1
330
1F
100
AcDbEntity
  8
0
  6
SLD-Continua
 62
     7
370
    25
100
AcDbLine
 10
498.6307465333
 20
202.4359011429
 30
0.0
 11
331.6307465333
 21
202.4359011429
 31
0.0
  0
LINE
  5
E2
330
1F
100
AcDbEntity
  8
0
  6
SLD-Continua
 62
     7
370
    25
100
AcDbLine
 10
498.6307465333
 20
182.4359011429
 30
0.0
 11
502.8070298081
 21
182.5087984386
 31
0.0
  0
LINE
  5
E3
330
1F
100
AcDbEntity
  8
0
  6
SLD-Continua
 62
     7
370
    25
100
AcDbLine
 10
502.8070298081
 20
204.3630038472
 30
0.0
 11
498.6307465333
 21
204.4359011429
 31
0.0
  0
ARC
  5
E4
330
1F
100
AcDbEntity
  8
0
  6
SLD-Continua
 62
     7
370
    25
100
AcDbCircle
 10
502.7895774017
 20
183.5086461338
 30
0.0
 40
0.9999999999999822
100
AcDbArc
 50
271.0
 51
350.3134165627
  0
ARC
  5
E5
330
1F
100
AcDbEntity
  8
0
  6
SLD-Continua
 62
     7
370
    25
100
AcDbCircle
 10
502.7895774017
 20
203.363156152
 30
0.0
 40
0.9999999999999822
100
AcDbArc
 50
9.6865834373
 51
89.0
  0
ARC
  5
E6
330
1F
100
AcDbEntity
  8
0
  6
SLD-Continua
 62
     7
370
    25
100
AcDbCircle
 10
444.6307465333
 20
193.4359011429
 30
0.0
 40
60.00000000000001
100
AcDbArc
 50
350.3134165626
 51
9.6865834374
  0
LINE
  5
E7
330
1F
100
AcDbEntity
  8
0
  6
SLD-Continua
 62
     7
370
    25
100
AcDbLine
 10
348.9818538024
 20
168.4255519313
 30
0.0
 11
349.1852465333
 21
168.3081230834
 31
0.0
  0
LINE
  5
E8
330
1F
100
AcDbEntity
  8
0
  6
SLD-Continua
 62
     7
370
    25
100
AcDbLine
 10
354.0762465333
 20
168.3081230834
 30
0.0
 11
354.2796584018
 21
168.4255629804
 31
0.0
  0
LINE
  5
E9
330
1F
100
AcDbEntity
  8
0
  6
SLD-Continua
 62
     7
370
    25
100
AcDbLine
 10
331.6307465333
 20
202.5359011429
 30
0.0
 11
331.6307465333
 21
184.3359011429
 31
0.0
  0
LINE
  5
EA
330
1F
100
AcDbEntity
  8
0
  6
SLD-Continua
 62
     7
370
    25
100
AcDbLine
 10
346.6307465333
 20
253.4359011429
 30
0.0
 11
346.6307465333
 21
251.9359011429
 31
0.0
  0
LINE
  5
EB
330
1F
100
AcDbEntity
  8
0
  6
SLD-Continua
 62
     7
370
    25
100
AcDbLine
 10
346.6307465333
 20
251.9359011429
 30
0.0
 11
321.6307465333
 21
251.9359011429
 31
0.0
  0
LINE
  5
EC
330
1F
100
AcDbEntity
  8
0
  6
SLD-Continua
 62
     7
370
    25
100
AcDbLine
 10
321.6307465333
 20
251.9359011429
 30
0.0
 11
321.6307465333
 21
253.4359011429
 31
0.0
  0
LINE
  5
ED
330
1F
100
AcDbEntity
  8
0
  6
SLD-Continua
 62
     7
370
    25
100
AcDbLine
 10
321.6307465333
 20
253.4359011429
 30
0.0
 11
346.6307465333
 21
253.4359011429
 31
0.0
  0
LINE
  5
EE
330
1F
100
AcDbEntity
  8
0
  6
SLD-Continua
 62
     7
370
    25
100
AcDbLine
 10
503.6307465333
 20
253.4359011429
 30
0.0
 11
503.6307465333
 21
251.9359011429
 31
0.0
  0
LINE
  5
EF
330
1F
100
AcDbEntity
  8
0
  6
SLD-Continua
 62
     7
370
    25
100
AcDbLine
 10
503.6307465333
 20
251.9359011429
 30
0.0
 11
478.6307465333
 21
251.9359011429
 31
0.0
  0
LINE
  5
F0
330
1F
100
AcDbEntity
  8
0
  6
SLD-Continua
 62
     7
370
    25
100
AcDbLine
 10
478.6307465333
 20
251.9359011429
 30
0.0
 11
478.6307465333
 21
253.4359011429
 31
0.0
  0
LINE
  5
F1
330
1F
100
AcDbEntity
  8
0
  6
SLD-Continua
 62
     7
370
    25
100
AcDbLine
 10
478.6307465333
 20
253.4359011429
 30
0.0
 11
503.6307465333
 21
253.4359011429
 31
0.0
  0
LINE
  5
F2
330
1F
100
AcDbEntity
  8
0
  6
SLD-Continua
 62
     7
370
    25
100
AcDbLine
 10
346.6307465333
 20
251.9359011429
 30
0.0
 11
478.6307465333
 21
251.9359011429
 31
0.0
  0
LINE
  5
F3
330
1F
100
AcDbEntity
  8
0
  6
SLD-Continua
 62
     7
370
    25
100
AcDbLine
 10
346.6307465333
 20
253.4359011429
 30
0.0
 11
478.6307465333
 21
253.4359011429
 31
0.0
  0
LINE
  5
F4
330
1F
100
AcDbEntity
  8
0
  6
SLD-Continua
 62
     7
370
    25
100
AcDbLine
 10
321.6307465333
 20
250.4359011429
 30
0.0
 11
321.6307465333
 21
251.9359011429
 31
0.0
  0
LINE
  5
F5
330
1F
100
AcDbEntity
  8
0
  6
SLD-Continua
 62
     7
370
    25
100
AcDbLine
 10
321.6307465333
 20
250.4359011429
 30
0.0
 11
503.6307465333
 21
250.4359011429
 31
0.0
  0
LINE
  5
F6
330
1F
100
AcDbEntity
  8
0
  6
SLD-Continua
 62
     7
370
    25
100
AcDbLine
 10
503.6307465333
 20
251.9359011429
 30
0.0
 11
503.6307465333
 21
250.4359011429
 31
0.0
  0
ARC
  5
F7
330
1F
100
AcDbEntity
  8
0
  6
SLD-Continua
 62
     7
370
    25
100
AcDbCircle
 10
396.6307465333
 20
223.4359011429
 30
0.0
 40
15.00000000000003
100
AcDbArc
 50
90.0
 51
180.0
  0
LINE
  5
F8
330
1F
100
AcDbEntity
  8
0
  6
SLD-Continua
 62
     7
370
    25
100
AcDbLine
 10
381.6307465333
 20
202.4359011429
 30
0.0
 11
381.6307465333
 21
223.4359011429
 31
0.0
  0
ARC
  5
F9
330
1F
100
AcDbEntity
  8
0
  6
SLD-Continua
 62
     7
370
    25
100
AcDbCircle
 10
351.6307465333
 20
193.4359011429
 30
0.0
 40
30.00000000000006
100
AcDbArc
 50
180.0
 51
342.5423968763
  0
LINE
  5
FA
330
1F
100
AcDbEntity
  8
0
  6
SLD-Continua
 62
     7
370
    25
100
AcDbLine
 10
321.6307465333
 20
193.4359011429
 30
0.0
 11
321.6307465333
 21
250.4359011429
 31
0.0
  0
ARC
  5
FB
330
1F
100
AcDbEntity
  8
0
  6
SLD-Continua
 62
     7
370
    25
100
AcDbCircle
 10
498.6307465333
 20
243.4359011429
 30
0.0
 40
5.0
100
AcDbArc
 50
270.0
 51
0.0
  0
LINE
  5
FC
330
1F
100
AcDbEntity
  8
0
  6
SLD-Continua
 62
     7
370
    25
100
AcDbLine
 10
498.6307465333
 20
238.4359011429
 30
0.0
 11
396.6307465333
 21
238.4359011429
 31
0.0
  0
LINE
  5
FD
330
1F
100
AcDbEntity
  8
0
  6
SLD-Continua
 62
     7
370
    25
100
AcDbLine
 10
503.6307465333
 20
250.4359011429
 30
0.0
 11
503.6307465333
 21
243.4359011429
 31
0.0
  0
LINE
  5
FE
330
1F
100
AcDbEntity
  8
0
  6
SLD-Continua
 62
     7
370
    25
100
AcDbLine
 10
498.6307465333
 20
202.5359980334
 30
0.0
 11
498.6307465333
 21
204.4359011429
 31
0.0
  0
LINE
  5
FF
330
1F
100
AcDbEntity
  8
0
  6
SLD-Continua
 62
     7
370
    25
100
AcDbLine
 10
498.6307465333
 20
182.4359011429
 30
0.0
 11
498.6307465333
 21
202.5359980334
 31
0.0
  0
LINE
  5
100
330
1F
100
AcDbEntity
  8
0
  6
SLD-Continua
 62
     7
370
    25
100
AcDbLine
 10
351.0744178897
 20
168.3081230834
 30
0.0
 11
349.1852465333
 21
168.3081230834
 31
0.0
  0
LINE
  5
101
330
1F
100
AcDbEntity
  8
0
  6
SLD-Continua
 62
     7
370
    25
100
AcDbLine
 10
354.0762465333
 20
168.3081230834
 30
0.0
 11
352.1947999029
 21
168.3081230834
 31
0.0
  0
LWPOLYLINE
  5
102
330
1F
100
AcDbEntity
  8
0
  6
SLD-Continua
 62
     7
370
    25
100
AcDbPolyline
 90
       32
 70
   128
 43
0.0
 10
350.6982868606
 20
168.317833865
 10
350.9845715576
 20
168.3097484131
 10
351.2773226176
 20
168.3045065516
 10
351.5705193807
 20
168.3023331671
 10
351.8641386599
 20
168.3032443749
 10
352.1561356533
 20
168.3072143868
 10
352.4465032532
 20
168.3141859559
 10
352.737311194
 20
168.3241754554
 10
353.0220936243
 20
168.3368496584
 10
353.2870108422
 20
168.3511749401
 10
353.5421311271
 20
168.3672390833
 10
353.7889437902
 20
168.3848426727
 10
354.0212821509
 20
168.4031901044
 10
354.2240823531
 20
168.420522621
 10
354.4103280472
 20
168.4374138046
 10
354.5806410953
 20
168.4535289858
 10
354.7301225686
 20
168.467994011
 10
354.8499908437
 20
168.4795417544
 10
354.9474181175
 20
168.4885475696
 10
355.0227169291
 20
168.4947515105
 10
355.0742704462
 20
168.4977528982
 10
355.0991998981
 20
168.4973545353
 10
355.100871359
 20
168.4936722367
 10
355.0791010835
 20
168.4867570037
 10
355.0331143878
 20
168.476506248
 10
354.9669303526
 20
168.4638658095
 10
354.8783519652
 20
168.4485347271
 10
354.7686176763
 20
168.4309829604
 10
354.6370203061
 20
168.4113895536
 10
354.4869788964
 20
168.3905770216
 10
354.3170447359
 20
168.368692158
 10
354.1459552857
 20
168.3483694504
  0
ARC
  5
103
330
1F
100
AcDbEntity
  8
0
  6
SLD-Continua
 62
     7
370
    25
100
AcDbCircle
 10
351.6307173486
 20
190.7927685688
 30
0.0
 40
22.5852865712999
100
AcDbArc
 50
264.5890454496
 51
275.4109545504
  0
LWPOLYLINE
  5
104
330
1F
100
AcDbEntity
  8
0
  6
SLD-Continua
 62
     7
370
    25
100
AcDbPolyline
 90
       27
 70
   128
 43
0.0
 10
349.1156436851
 20
168.3483083065
 10
348.9216210475
 20
168.3715336287
 10
348.7415252049
 20
168.3950286674
 10
348.5906577616
 20
168.4162988018
 10
348.4606309646
 20
168.4360144655
 10
348.3501663986
 20
168.4540907748
 10
348.2636262631
 20
168.4695877285
 10
348.2055097822
 20
168.4813250355
 10
348.1700725843
 20
168.4901430878
 10
348.1584791123
 20
168.4957176971
 10
348.1716758987
 20
168.4979300439
 10
348.2072641188
 20
168.4968254264
 10
348.2656221916
 20
168.4926743698
 10
348.3459913136
 20
168.4856749483
 10
348.4492918353
 20
168.4759327706
 10
348.5884509763
 20
168.4624511442
 10
348.7348155942
 20
168.448363149
 10
348.8997993882
 20
168.4329195909
 10
349.0602598628
 20
168.4185118572
 10
349.2597688909
 20
168.401582945
 10
349.4763132197
 20
168.3845606813
 10
349.7094756245
 20
168.3679064593
 10
349.9588791393
 20
168.3520940526
 10
350.1364868092
 20
168.3421269891
 10
350.3188565891
 20
168.3330270048
 10
350.5067724203
 20
168.3248688929
 10
350.6982868606
 20
168.317833865
  0
ARC
  5
105
330
1F
100
AcDbEntity
  8
0
  6
SLD-Continua
 62
     7
370
    25
100
AcDbCircle
 10
351.6307465333
 20
193.4359011429
 30
0.0
 40
25.25000000000006
100
AcDbArc
 50
20.8814573371
 51
180.0
  0
ARC
  5
106
330
1F
100
AcDbEntity
  8
0
  6
SLD-Continua
 62
     7
370
    25
100
AcDbCircle
 10
351.6307465333
 20
193.4359011429
 30
0.0
 40
25.25000000000006
100
AcDbArc
 50
180.0
 51
339.1185426629
  0
LINE
  5
107
330
1F
100
AcDbEntity
  8
0
  6
SLD-Continua
 62
     7
370
    25
100
AcDbLine
 10
329.0972714493
 20
193.4359011429
 30
0.0
 11
329.0972714493
 21
184.3359011429
 31
0.0
  0
LINE
  5
108
330
1F
100
AcDbEntity
  8
0
  6
SLD-Continua
 62
     7
370
    25
100
AcDbLine
 10
329.0972714493
 20
202.5359011429
 30
0.0
 11
329.0972714493
 21
193.4359011429
 31
0.0
  0
LINE
  5
109
330
1F
100
AcDbEntity
  8
0
  6
SLD-Continua
 62
     7
370
    25
100
AcDbLine
 10
328.6002068653
 20
193.4359011429
 30
0.0
 11
328.6002068653
 21
202.0899903568
 31
0.0
  0
LINE
  5
10A
330
1F
100
AcDbEntity
  8
0
  6
SLD-Continua
 62
     7
370
    25
100
AcDbLine
 10
328.6002068653
 20
184.781811929
 30
0.0
 11
328.6002068653
 21
193.4359011429
 31
0.0
  0
LINE
  5
10B
330
1F
100
AcDbEntity
  8
0
  6
SLD-Continua
 62
     7
370
    25
100
AcDbLine
 10
502.8070298081
 20
182.5087984386
 30
0.0
 11
502.8070298081
 21
204.3630038472
 31
0.0
  0
LINE
  5
10C
330
1F
100
AcDbEntity
  8
0
  6
SLD-Continua
 62
     7
370
    25
100
AcDbLine
 10
503.7753202978
 20
201.7877331096
 30
0.0
 11
503.7753202978
 21
183.3403875743
 31
0.0
  0
LINE
  5
10D
330
1F
100
AcDbEntity
  8
0
  6
SLD-Continua
 62
     7
370
    25
100
AcDbLine
 10
503.7753202978
 20
203.5314147115
 30
0.0
 11
503.7753202978
 21
201.7877331096
 31
0.0
  0
ARC
  5
10E
330
1F
100
AcDbEntity
  8
0
  6
SLD-Continua
 62
     7
370
    25
100
AcDbCircle
 10
351.6307465333
 20
193.4359011429
 30
0.0
 40
12.26012540167813
100
AcDbArc
 50
47.2301341125
 51
132.7698658875
  0
ARC
  5
10F
330
1F
100
AcDbEntity
  8
0
  6
SLD-Continua
 62
     7
370
    25
100
AcDbCircle
 10
351.6307465333
 20
193.4359011429
 30
0.0
 40
11.26017147470911
100
AcDbArc
 50
53.0611495239
 51
126.9388504761
  0
ARC
  5
110
330
1F
100
AcDbEntity
  8
0
  6
SLD-Continua
 62
     7
370
    25
100
AcDbCircle
 10
351.6307465333
 20
193.4359011429
 30
0.0
 40
12.26012540167815
100
AcDbArc
 50
227.2301341125
 51
312.7698658875
  0
ARC
  5
111
330
1F
100
AcDbEntity
  8
0
  6
SLD-Continua
 62
     7
370
    25
100
AcDbCircle
 10
351.6307465333
 20
193.4359011429
 30
0.0
 40
11.26017147470909
100
AcDbArc
 50
233.0611495239
 51
306.9388504761
  0
ARC
  5
112
330
1F
100
AcDbEntity
  8
0
  6
SLD-Continua
 62
     7
370
    25
100
AcDbCircle
 10
351.6307465333
 20
193.4359011429
 30
0.0
 40
12.6154951106249
100
AcDbArc
 50
225.5129119818
 51
314.4870880182
  0
ARC
  5
113
330
1F
100
AcDbEntity
  8
0
  6
SLD-Continua
 62
     7
370
    25
100
AcDbCircle
 10
351.6307465333
 20
193.4359011429
 30
0.0
 40
12.61549511062487
100
AcDbArc
 50
45.5129119818
 51
134.4870880182
  0
ARC
  5
114
330
1F
100
AcDbEntity
  8
0
  6
SLD-Continua
 62
     7
370
    25
100
AcDbCircle
 10
351.6307465333
 20
193.4359011429
 30
0.0
 40
13.6154490375939
100
AcDbArc
 50
221.377238487
 51
318.622761513
  0
ARC
  5
115
330
1F
100
AcDbEntity
  8
0
  6
SLD-Continua
 62
     7
370
    25
100
AcDbCircle
 10
351.6307465333
 20
193.4359011429
 30
0.0
 40
13.61544903759396
100
AcDbArc
 50
41.3772384871
 51
138.6227615129
  0
ARC
  5
116
330
1F
100
AcDbEntity
  8
0
  6
SLD-Continua
 62
     7
370
    25
100
AcDbCircle
 10
351.6307465333
 20
193.4359011429
 30
0.0
 40
25.09620608257507
100
AcDbArc
 50
21.0154661784
 51
338.9845338216
  0
ARC
  5
117
330
1F
100
AcDbEntity
  8
0
  6
SLD-Continua
 62
     7
370
    25
100
AcDbCircle
 10
351.6307465333
 20
193.4359011429
 30
0.0
 40
24.09630355856583
100
AcDbArc
 50
21.9317124721
 51
157.8117264848
  0
ARC
  5
118
330
1F
100
AcDbEntity
  8
0
  6
SLD-Continua
 62
     7
370
    25
100
AcDbCircle
 10
351.6307465333
 20
193.4359011429
 30
0.0
 40
24.09630355856589
100
AcDbArc
 50
164.7592687111
 51
195.2407312889
  0
ARC
  5
119
330
1F
100
AcDbEntity
  8
0
  6
SLD-Continua
 62
     7
370
    25
100
AcDbCircle
 10
351.6307465333
 20
193.4359011429
 30
0.0
 40
24.09630355856585
100
AcDbArc
 50
202.1882735152
 51
338.0682875279
  0
DIMENSION
  5
11A
330
1F
100
AcDbEntity
  8
1
100
AcDbDimension
280
     0
  2
_D
 10
503.6307465333
 20
287.7469534554
 30
0.0
 11
412.6307465333
 21
287.7469534554
 31
0.0
 70
   160
  1
<>
 71
     2
 42
-1.0
 73
     0
 74
     0
 75
     0
  3
SLDDIMSTYLE0
100
AcDbAlignedDimension
 13
321.6307465333
 23
251.9359011429
 33
0.0
 14
503.6307465333
 24
251.9359011429
 34
0.0
100
AcDbRotatedDimension
  0
LINE
  5
125
330
1F
100
AcDbEntity
  8
0
  6
SLD-Continua
 62
     7
370
    25
100
AcDbLine
 10
543.4947572197
 20
163.4010525812
 30
0.0
 11
544.9947572197
 21
163.4010525812
 31
0.0
  0
LINE
  5
126
330
1F
100
AcDbEntity
  8
0
  6
SLD-Continua
 62
     7
370
    25
100
AcDbLine
 10
547.5027913265
 20
168.3001016177
 30
0.0
 11
547.5492572197
 21
168.2732745217
 31
0.0
  0
LINE
  5
127
330
1F
100
AcDbEntity
  8
0
  6
SLD-Continua
 62
     7
370
    25
100
AcDbLine
 10
552.4402572197
 20
168.2732745217
 30
0.0
 11
552.5764013962
 21
168.3518773986
 31
0.0
  0
LINE
  5
128
330
1F
100
AcDbEntity
  8
0
  6
SLD-Continua
 62
     7
370
    25
100
AcDbLine
 10
553.3264076311
 20
168.2673919271
 30
0.0
 11
556.0087194001
 21
168.3048464986
 31
0.0
  0
LINE
  5
129
330
1F
100
AcDbEntity
  8
0
  6
SLD-Continua
 62
     7
370
    25
100
AcDbLine
 10
544.9947572197
 20
168.1510525812
 30
0.0
 11
546.5696263602
 21
168.1730433317
 31
0.0
  0
LINE
  5
12A
330
1F
100
AcDbEntity
  8
0
  6
SLD-Continua
 62
     7
370
    25
100
AcDbLine
 10
556.0087194001
 20
218.4972586638
 30
0.0
 11
544.9947572197
 21
218.6510525812
 31
0.0
  0
ARC
  5
12B
330
1F
100
AcDbEntity
  8
0
  6
SLD-Continua
 62
     7
370
    25
100
AcDbCircle
 10
555.9947572197
 20
217.4973561398
 30
0.0
 40
1.0
100
AcDbArc
 50
0.0
 51
89.2
  0
ARC
  5
12C
330
1F
100
AcDbEntity
  8
0
  6
SLD-Continua
 62
     7
370
    25
100
AcDbCircle
 10
555.9947572197
 20
169.3047490226
 30
0.0
 40
1.000000000000012
100
AcDbArc
 50
270.8
 51
0.0
  0
ARC
  5
12D
330
1F
100
AcDbEntity
  8
0
  6
SLD-Continua
 62
     7
370
    25
100
AcDbCircle
 10
557.9947572197
 20
207.0165016188
 30
0.0
 40
1.000000000000007
100
AcDbArc
 50
180.0
 51
269.45
  0
ARC
  5
12E
330
1F
100
AcDbEntity
  8
0
  6
SLD-Continua
 62
     7
370
    25
100
AcDbCircle
 10
557.9947572197
 20
179.7856035436
 30
0.0
 40
1.0
100
AcDbArc
 50
90.55
 51
180.0
  0
LINE
  5
12F
330
1F
100
AcDbEntity
  8
0
  6
SLD-Continua
 62
     7
370
    25
100
AcDbLine
 10
557.9851580563
 20
180.7855574706
 30
0.0
 11
595.0043563832
 21
181.1409271795
 31
0.0
  0
LINE
  5
130
330
1F
100
AcDbEntity
  8
0
  6
SLD-Continua
 62
     7
370
    25
100
AcDbLine
 10
595.0043563832
 20
205.6611779829
 30
0.0
 11
557.9851580563
 21
206.0165476918
 31
0.0
  0
ARC
  5
131
330
1F
100
AcDbEntity
  8
0
  6
SLD-Continua
 62
     7
370
    25
100
AcDbCircle
 10
594.9947572197
 20
204.6612240559
 30
0.0
 40
1.000000000000007
100
AcDbArc
 50
0.0
 51
89.45
  0
ARC
  5
132
330
1F
100
AcDbEntity
  8
0
  6
SLD-Continua
 62
     7
370
    25
100
AcDbCircle
 10
595.7529399658
 20
202.1533824541
 30
0.0
 40
0.2333129629740766
100
AcDbArc
 50
292.2222536947
 51
313.9111045176
  0
ARC
  5
133
330
1F
100
AcDbEntity
  8
0
  6
SLD-Continua
 62
     7
370
    25
100
AcDbCircle
 10
595.7565797403
 20
184.6534151051
 30
0.0
 40
0.227606096728298
100
AcDbArc
 50
46.3186518927
 51
68.1684402673
  0
ARC
  5
134
330
1F
100
AcDbEntity
  8
0
  6
SLD-Continua
 62
     7
370
    25
100
AcDbCircle
 10
594.9947572197
 20
182.1408811065
 30
0.0
 40
1.0
100
AcDbArc
 50
270.55
 51
0.0
  0
CIRCLE
  5
135
330
1F
100
AcDbEntity
  8
0
  6
SLD-Continua
 62
     7
370
    25
100
AcDbCircle
 10
598.9947572197
 20
193.4010525812
 30
0.0
 40
8.654089213912812
  0
CIRCLE
  5
136
330
1F
100
AcDbEntity
  8
0
  6
SLD-Continua
 62
     7
370
    25
100
AcDbCircle
 10
598.9947572197
 20
193.4010525812
 30
0.0
 40
9.100000000000136
  0
LINE
  5
137
330
1F
100
AcDbEntity
  8
0
  6
SLD-Continua
 62
     7
370
    25
100
AcDbLine
 10
543.4947572197
 20
193.4010525812
 30
0.0
 11
543.4947572197
 21
250.4010525812
 31
0.0
  0
LINE
  5
138
330
1F
100
AcDbEntity
  8
0
  6
SLD-Continua
 62
     7
370
    25
100
AcDbLine
 10
544.9947572197
 20
250.4010525812
 30
0.0
 11
543.4947572197
 21
250.4010525812
 31
0.0
  0
LINE
  5
139
330
1F
100
AcDbEntity
  8
0
  6
SLD-Continua
 62
     7
370
    25
100
AcDbLine
 10
544.9947572197
 20
193.4010525812
 30
0.0
 11
544.9947572197
 21
250.4010525812
 31
0.0
  0
LINE
  5
13A
330
1F
100
AcDbEntity
  8
0
  6
SLD-Continua
 62
     7
370
    25
100
AcDbLine
 10
543.4947572197
 20
193.4010525812
 30
0.0
 11
544.9947572197
 21
193.4010525812
 31
0.0
  0
LINE
  5
13B
330
1F
100
AcDbEntity
  8
0
  6
SLD-Continua
 62
     7
370
    25
100
AcDbLine
 10
638.4947572197
 20
253.4010525812
 30
0.0
 11
638.4947572197
 21
251.9010525812
 31
0.0
  0
LINE
  5
13C
330
1F
100
AcDbEntity
  8
0
  6
SLD-Continua
 62
     7
370
    25
100
AcDbLine
 10
613.4947572197
 20
251.9010525812
 30
0.0
 11
613.4947572197
 21
253.4010525812
 31
0.0
  0
LINE
  5
13D
330
1F
100
AcDbEntity
  8
0
  6
SLD-Continua
 62
     7
370
    25
100
AcDbLine
 10
638.4947572197
 20
251.9010525812
 30
0.0
 11
613.4947572197
 21
251.9010525812
 31
0.0
  0
LINE
  5
13E
330
1F
100
AcDbEntity
  8
0
  6
SLD-Continua
 62
     7
370
    25
100
AcDbLine
 10
613.4947572197
 20
253.4010525812
 30
0.0
 11
638.4947572197
 21
253.4010525812
 31
0.0
  0
LINE
  5
13F
330
1F
100
AcDbEntity
  8
0
  6
SLD-Continua
 62
     7
370
    25
100
AcDbLine
 10
544.9947572197
 20
193.4010525812
 30
0.0
 11
544.9947572197
 21
163.4010525812
 31
0.0
  0
LINE
  5
140
330
1F
100
AcDbEntity
  8
0
  6
SLD-Continua
 62
     7
370
    25
100
AcDbLine
 10
543.4947572197
 20
193.4010525812
 30
0.0
 11
543.4947572197
 21
163.4010525812
 31
0.0
  0
LINE
  5
141
330
1F
100
AcDbEntity
  8
0
  6
SLD-Continua
 62
     7
370
    25
100
AcDbLine
 10
546.4947572197
 20
253.4010525812
 30
0.0
 11
546.4947572197
 21
251.9010525812
 31
0.0
  0
ARC
  5
142
330
1F
100
AcDbEntity
  8
0
  6
SLD-Continua
 62
     7
370
    25
100
AcDbCircle
 10
546.4947572197
 20
250.4010525812
 30
0.0
 40
1.5
100
AcDbArc
 50
90.0
 51
180.0
  0
ARC
  5
143
330
1F
100
AcDbEntity
  8
0
  6
SLD-Continua
 62
     7
370
    25
100
AcDbCircle
 10
546.4947572197
 20
250.4010525812
 30
0.0
 40
3.0
100
AcDbArc
 50
90.0
 51
180.0
  0
LINE
  5
144
330
1F
100
AcDbEntity
  8
0
  6
SLD-Continua
 62
     7
370
    25
100
AcDbLine
 10
546.4947572197
 20
251.9010525812
 30
0.0
 11
613.4947572197
 21
251.9010525812
 31
0.0
  0
LINE
  5
145
330
1F
100
AcDbEntity
  8
0
  6
SLD-Continua
 62
     7
370
    25
100
AcDbLine
 10
546.4947572197
 20
253.4010525812
 30
0.0
 11
613.4947572197
 21
253.4010525812
 31
0.0
  0
ARC
  5
146
330
1F
100
AcDbEntity
  8
0
  6
SLD-Continua
 62
     7
370
    25
100
AcDbCircle
 10
598.9947572197
 20
193.4010525812
 30
0.0
 40
11.00000000000001
100
AcDbArc
 50
55.8204903068
 51
105.8266201319
  0
ARC
  5
147
330
1F
100
AcDbEntity
  8
0
  6
SLD-Continua
 62
     7
370
    25
100
AcDbCircle
 10
598.9947572197
 20
193.4010525812
 30
0.0
 40
11.00000000000001
100
AcDbArc
 50
254.1733798681
 51
55.8204903068
  0
LINE
  5
148
330
1F
100
AcDbEntity
  8
0
  6
SLD-Continua
 62
     7
370
    25
100
AcDbLine
 10
552.4402572197
 20
168.2732745217
 30
0.0
 11
547.5492572197
 21
168.2732745217
 31
0.0
  0
LWPOLYLINE
  5
149
330
1F
100
AcDbEntity
  8
0
  6
SLD-Continua
 62
     7
370
    25
100
AcDbPolyline
 90
        5
 70
   128
 43
0.0
 10
553.2040500047
 20
168.2829853033
 10
553.2691430359
 20
168.2748998514
 10
553.3107294883
 20
168.2696579899
 10
553.3278770133
 20
168.2674846054
 10
553.3264037271
 20
168.2676715093
  0
LWPOLYLINE
  5
14A
330
1F
100
AcDbEntity
  8
0
  6
SLD-Continua
 62
     7
370
    25
100
AcDbPolyline
 90
       37
 70
   128
 43
0.0
 10
546.5696205654
 20
168.1734583278
 10
546.5691291518
 20
168.1733751005
 10
546.5920445682
 20
168.176898912
 10
546.6400709211
 20
168.1842487237
 10
546.71325771
 20
168.1952879341
 10
546.8074855939
 20
168.2091792854
 10
546.9251431935
 20
168.2259930782
 10
547.068165145
 20
168.2456581499
 10
547.2344339989
 20
168.2674762824
 10
547.4135843933
 20
168.2897232473
 10
547.6125698256
 20
168.3128732923
 10
547.8341063258
 20
168.336685067
 10
548.0741410036
 20
168.3601801058
 10
548.3151536174
 20
168.3813787453
 10
548.5698744546
 20
168.4011659038
 10
548.8411663647
 20
168.4192422131
 10
549.1236419042
 20
168.4347391668
 10
549.3954117306
 20
168.4464764738
 10
549.6732308756
 20
168.455272395
 10
549.9552088749
 20
168.4608691354
 10
550.2422228203
 20
168.4630814822
 10
550.5122464109
 20
168.4619768647
 10
550.7804884319
 20
168.4578490723
 10
551.0447881756
 20
168.4508263866
 10
551.3033852525
 20
168.4410842089
 10
551.5779307127
 20
168.4276025825
 10
551.8124457458
 20
168.4135651877
 10
552.0357345489
 20
168.3980710292
 10
552.2208066603
 20
168.3836632955
 10
552.4180803177
 20
168.3667343833
 10
552.5994753449
 20
168.3497121196
 10
552.7641134094
 20
168.3330578976
 10
552.9109878881
 20
168.3172454909
 10
552.9993973624
 20
168.3072931501
 10
553.0778923729
 20
168.2981784431
 10
553.1462151614
 20
168.2900315466
 10
553.2040500047
 20
168.2829853033
  0
LINE
  5
14B
330
1F
100
AcDbEntity
  8
0
  6
SLD-Continua
 62
     7
370
    25
100
AcDbLine
 10
556.9947572197
 20
217.4973561398
 30
0.0
 11
556.9947572197
 21
169.3047490226
 31
0.0
  0
ARC
  5
14C
330
1F
100
AcDbEntity
  8
0
  6
SLD-Continua
 62
     7
370
    25
100
AcDbCircle
 10
599.2601427565
 20
193.4010525812
 30
0.0
 40
9.622806978605622
100
AcDbArc
 50
116.2481921243
 51
243.7518078757
  0
LWPOLYLINE
  5
14D
330
1F
100
AcDbEntity
  8
0
  6
SLD-Continua
 62
     7
370
    25
100
AcDbPolyline
 90
       11
 70
   128
 43
0.0
 10
595.0043563832
 20
202.0316201461
 10
595.0355554238
 20
201.9940295894
 10
595.0650524952
 20
201.949428808
 10
595.0913534052
 20
201.9000770816
 10
595.1131258652
 20
201.8484743519
 10
595.129266978
 20
201.7972345868
 10
595.1389591057
 20
201.7489533676
 10
595.1417112877
 20
201.706076409
 10
595.1373841105
 20
201.6707756693
 10
595.1261967699
 20
201.6448393291
 10
595.1087159674
 20
201.6295812094
  0
LWPOLYLINE
  5
14E
330
1F
100
AcDbEntity
  8
0
  6
SLD-Continua
 62
     7
370
    25
100
AcDbPolyline
 90
       11
 70
   128
 43
0.0
 10
595.0043563832
 20
184.7704850163
 10
595.0355554238
 20
184.808075573
 10
595.0650524952
 20
184.8526763545
 10
595.0913534052
 20
184.9020280809
 10
595.1131258652
 20
184.9536308105
 10
595.129266978
 20
185.0048705756
 10
595.1389591057
 20
185.0531517948
 10
595.1417112877
 20
185.0960287534
 10
595.1373841105
 20
185.1313294931
 10
595.1261967699
 20
185.1572658333
 10
595.1087159674
 20
185.172523953
  0
LWPOLYLINE
  5
14F
330
1F
100
AcDbEntity
  8
0
  6
SLD-Continua
 62
     7
370
    25
100
AcDbPolyline
 90
       13
 70
   128
 43
0.0
 10
595.0043563832
 20
202.0316201461
 10
595.1204505819
 20
202.0717314824
 10
595.3015386568
 20
202.1273803858
 10
595.4693475821
 20
202.1706601269
 10
595.5657498586
 20
202.1912790813
 10
595.6536763358
 20
202.2067653806
 10
595.7338337363
 20
202.2173988525
 10
595.80413379
 20
202.223031123
 10
595.8620598767
 20
202.223876872
 10
595.9180933679
 20
202.2192057639
 10
595.9594660488
 20
202.2084924114
 10
595.985702768
 20
202.1914105977
 10
595.9947572197
 20
202.1680360989
  0
LINE
  5
150
330
1F
100
AcDbEntity
  8
0
  6
SLD-Continua
 62
     7
370
    25
100
AcDbLine
 10
595.9947572197
 20
204.6612240559
 30
0.0
 11
595.9947572197
 21
202.1680360989
 31
0.0
  0
ARC
  5
151
330
1F
100
AcDbEntity
  8
0
  6
SLD-Continua
 62
     7
370
    25
100
AcDbCircle
 10
595.7447572197
 20
202.1680360989
 30
0.0
 40
0.2500000000000116
100
AcDbArc
 50
312.9272085601
 51
0.0
  0
ARC
  5
152
330
1F
100
AcDbEntity
  8
0
  6
SLD-Continua
 62
     7
370
    25
100
AcDbCircle
 10
595.7447572197
 20
184.6340690635
 30
0.0
 40
0.2500000000000107
100
AcDbArc
 50
0.0
 51
47.4217280886
  0
ARC
  5
153
330
1F
100
AcDbEntity
  8
0
  6
SLD-Continua
 62
     7
370
    25
100
AcDbCircle
 10
595.6558659096
 20
185.8371052493
 30
0.0
 40
1.249857345652623
100
AcDbArc
 50
238.5827148331
 51
285.7323523763
  0
LINE
  5
154
330
1F
100
AcDbEntity
  8
0
  6
SLD-Continua
 62
     7
370
    25
100
AcDbLine
 10
595.9947572197
 20
184.6340690635
 30
0.0
 11
595.9947572197
 21
182.1408811065
 31
0.0
  0
LINE
  5
155
330
1F
100
AcDbEntity
  8
0
  6
SLD-Continua
 62
     7
370
    25
100
AcDbLine
 10
595.8316556154
 20
184.8684803875
 30
0.0
 11
595.8312615709
 21
184.8686257577
 31
0.0
  0
LINE
  5
156
330
1F
100
AcDbEntity
  8
0
  6
SLD-Continua
 62
     7
370
    25
100
AcDbLine
 10
595.8312974029
 20
201.9334915757
 30
0.0
 11
595.8316556154
 21
201.9336247749
 31
0.0
  0
LINE
  5
157
330
1F
100
AcDbEntity
  8
0
  6
SLD-Continua
 62
     7
370
    25
100
AcDbLine
 10
556.0087194001
 20
168.3048464986
 30
0.0
 11
556.0087194001
 21
218.4972586638
 31
0.0
  0
LINE
  5
158
330
1F
100
AcDbEntity
  8
0
  6
SLD-Continua
 62
     7
370
    25
100
AcDbLine
 10
557.9851580563
 20
193.4010525812
 30
0.0
 11
557.9851580563
 21
180.7855574706
 31
0.0
  0
LINE
  5
159
330
1F
100
AcDbEntity
  8
0
  6
SLD-Continua
 62
     7
370
    25
100
AcDbLine
 10
557.9851580563
 20
206.0165476918
 30
0.0
 11
557.9851580563
 21
193.4010525812
 31
0.0
  0
LINE
  5
15A
330
1F
100
AcDbEntity
  8
0
  6
SLD-Continua
 62
     7
370
    25
100
AcDbLine
 10
595.0043563832
 20
202.0316201461
 30
0.0
 11
595.0043563832
 21
205.6611779829
 31
0.0
  0
LINE
  5
15B
330
1F
100
AcDbEntity
  8
0
  6
SLD-Continua
 62
     7
370
    25
100
AcDbLine
 10
595.0043563832
 20
181.1409271795
 30
0.0
 11
595.0043563832
 21
184.7704850163
 31
0.0
  0
DIMENSION
  5
15C
330
1F
100
AcDbEntity
  8
1
100
AcDbDimension
280
     0
  2
_D_1
 10
523.3645087033
 20
253.4010525812
 30
0.0
 11
523.3645087033
 21
208.4010525812
 31
0.0
 70
   160
  1
<>
 71
     2
 42
-1.0
 73
     0
 74
     0
 75
     0
  3
SLDDIMSTYLE0
100
AcDbAlignedDimension
 13
543.4947572197
 23
163.4010525812
 33
0.0
 14
546.4947572197
 24
253.4010525812
 34
0.0
 50
90.0
100
AcDbRotatedDimension
  0
ARC
  5
167
330
1F
100
AcDbEntity
  8
0
  6
SLD-Continua
 62
     7
370
    25
100
AcDbCircle
 10
502.7895774017
 20
47.9983816601
 30
0.0
 40
0.9999999999999949
100
AcDbArc
 50
327.2637837204
 51
350.3134165627
  0
ARC
  5
168
330
1F
100
AcDbEntity
  8
0
  6
SLD-Continua
 62
     7
370
    25
100
AcDbCircle
 10
502.7895774017
 20
67.8528916783
 30
0.0
 40
1.000000000000002
100
AcDbArc
 50
9.6865834373
 51
32.7362162796
  0
ARC
  5
169
330
1F
100
AcDbEntity
  8
0
  6
SLD-Continua
 62
     7
370
    25
100
AcDbCircle
 10
444.6307465333
 20
57.9256366692
 30
0.0
 40
60.00000000000001
100
AcDbArc
 50
350.3134165626
 51
9.6865834374
  0
LINE
  5
16A
330
1F
100
AcDbEntity
  8
0
  6
SLD-Continua
 62
     7
370
    25
100
AcDbLine
 10
321.6307465333
 20
113.4256366692
 30
0.0
 11
321.6307465333
 21
110.4256366692
 31
0.0
  0
LINE
  5
16B
330
1F
100
AcDbEntity
  8
0
  6
SLD-Continua
 62
     7
370
    25
100
AcDbLine
 10
321.6307465333
 20
113.4256366692
 30
0.0
 11
503.6307465333
 21
113.4256366692
 31
0.0
  0
LINE
  5
16C
330
1F
100
AcDbEntity
  8
0
  6
SLD-Continua
 62
     7
370
    25
100
AcDbLine
 10
321.6307465333
 20
110.4256366692
 30
0.0
 11
503.6307465333
 21
110.4256366692
 31
0.0
  0
LINE
  5
16D
330
1F
100
AcDbEntity
  8
0
  6
SLD-Continua
 62
     7
370
    25
100
AcDbLine
 10
503.6307465333
 20
113.4256366692
 30
0.0
 11
503.6307465333
 21
110.4256366692
 31
0.0
  0
ARC
  5
16E
330
1F
100
AcDbEntity
  8
0
  6
SLD-Continua
 62
     7
370
    25
100
AcDbCircle
 10
346.6307465333
 20
43.4256366692
 30
0.0
 40
25.00000000000006
100
AcDbArc
 50
180.0
 51
270.0
  0
ARC
  5
16F
330
1F
100
AcDbEntity
  8
0
  6
SLD-Continua
 62
     7
370
    25
100
AcDbCircle
 10
478.6307465333
 20
43.4256366692
 30
0.0
 40
24.99999999999999
100
AcDbArc
 50
270.0
 51
0.0
  0
LINE
  5
170
330
1F
100
AcDbEntity
  8
0
  6
SLD-Continua
 62
     7
370
    25
100
AcDbLine
 10
346.6307465333
 20
18.4256366692
 30
0.0
 11
478.6307465333
 21
18.4256366692
 31
0.0
  0
LINE
  5
171
330
1F
100
AcDbEntity
  8
0
  6
SLD-Continua
 62
     7
370
    25
100
AcDbLine
 10
321.6307465333
 20
110.4256366692
 30
0.0
 11
321.6307465333
 21
43.4256366692
 31
0.0
  0
LINE
  5
172
330
1F
100
AcDbEntity
  8
0
  6
SLD-Continua
 62
     7
370
    25
100
AcDbLine
 10
503.6307465333
 20
110.4256366692
 30
0.0
 11
503.6307465333
 21
43.4256366692
 31
0.0
  0
LINE
  5
173
330
1F
100
AcDbEntity
  8
0
  6
SLD-Continua
 62
     7
370
    25
100
AcDbLine
 10
503.7753202978
 20
52.2541027485
 30
0.0
 11
503.7753202978
 21
47.8301231006
 31
0.0
  0
LINE
  5
174
330
1F
100
AcDbEntity
  8
0
  6
SLD-Continua
 62
     7
370
    25
100
AcDbLine
 10
503.7753202978
 20
68.0211502378
 30
0.0
 11
503.7753202978
 21
52.2541027485
 31
0.0
  0
DIMENSION
  5
175
330
1F
100
AcDbEntity
  8
1
100
AcDbDimension
280
     0
  2
_D_2
 10
537.152942811
 20
18.4256366692
 30
0.0
 11
537.152942811
 21
65.9256366692
 31
0.0
 70
   160
  1
<>
 71
     2
 42
-1.0
 73
     0
 74
     0
 75
     0
  3
SLDDIMSTYLE0
100
AcDbAlignedDimension
 13
503.6307465333
 23
113.4256366692
 33
0.0
 14
478.6307465333
 24
18.4256366692
 34
0.0
 50
90.0
100
AcDbRotatedDimension
  0
ENDSEC
  0
SECTION
  2
OBJECTS
  0
DICTIONARY
  5
C
330
0
100
AcDbDictionary
281
     1
  3
ACAD_DETAILVIEWSTYLE
350
187
  3
ACAD_GROUP
350
D
  3
ACAD_LAYOUT
350
1A
  3
ACAD_MATERIAL
350
43
  3
ACAD_MLEADERSTYLE
350
6B
  3
ACAD_MLINESTYLE
350
17
  3
ACAD_PLOTSETTINGS
350
19
  3
ACAD_PLOTSTYLENAME
350
E
  3
ACAD_SCALELIST
350
47
  3
ACAD_SECTIONVIEWSTYLE
350
188
  3
ACAD_TABLESTYLE
350
69
  3
ACAD_VISUALSTYLE
350
2A
  3
ACDB_RECOMPOSE_DATA
350
184
  3
AcDbVariableDictionary
350
180
  0
SUN
  5
6D
330
29
100
AcDbSun
 90
        1
290
     0
 63
     7
421
 16777215
 40
1.0
291
     1
 91
  2455826
 92
 54000000
292
     0
 70
     2
 71
   256
280
     1
  0
DICTIONARY
  5
187
102
{ACAD_REACTORS
330
C
102
}
330
C
100
AcDbDictionary
281
     1
  0
DICTIONARY
  5
D
102
{ACAD_REACTORS
330
C
102
}
330
C
100
AcDbDictionary
281
     1
  0
DICTIONARY
  5
1A
102
{ACAD_REACTORS
330
C
102
}
330
C
100
AcDbDictionary
281
     1
  3
Layout1
350
1E
  3
Layout2
350
26
  3
Model
350
22
  0
DICTIONARY
  5
43
102
{ACAD_REACTORS
330
C
102
}
330
C
100
AcDbDictionary
281
     1
  3
ByBlock
350
45
  3
ByLayer
350
44
  3
Global
350
46
  0
DICTIONARY
  5
6B
102
{ACAD_REACTORS
330
C
102
}
330
C
100
AcDbDictionary
281
     1
  3
Standard
350
6C
  0
DICTIONARY
  5
17
102
{ACAD_REACTORS
330
C
102
}
330
C
100
AcDbDictionary
281
     1
  3
Standard
350
18
  0
DICTIONARY
  5
19
102
{ACAD_REACTORS
330
C
102
}
330
C
100
AcDbDictionary
281
     1
  0
ACDBDICTIONARYWDFLT
  5
E
102
{ACAD_REACTORS
330
C
102
}
330
C
100
AcDbDictionary
281
     1
  3
Normal
350
F
100
AcDbDictionaryWithDefault
340
F
  0
DICTIONARY
  5
47
102
{ACAD_REACTORS
330
C
102
}
330
C
100
AcDbDictionary
281
     1
  3
A0
350
48
  3
A1
350
49
  3
A2
350
4A
  3
A3
350
4B
  3
A4
350
4C
  3
A5
350
4D
  3
A6
350
4E
  3
A7
350
4F
  3
A8
350
50
  3
A9
350
51
  3
B0
350
52
  3
B1
350
53
  3
B2
350
54
  3
B3
350
55
  3
B4
350
56
  3
B5
350
57
  3
B6
350
58
  3
B7
350
59
  3
B8
350
5A
  3
B9
350
5B
  3
C0
350
5C
  3
C1
350
5D
  3
C2
350
5E
  3
C3
350
5F
  3
C4
350
60
  3
C5
350
61
  3
C6
350
62
  3
C7
350
63
  3
C8
350
64
  3
C9
350
65
  3
D0
350
66
  3
D1
350
67
  3
D2
350
68
  0
DICTIONARY
  5
188
102
{ACAD_REACTORS
330
C
102
}
330
C
100
AcDbDictionary
281
     1
  0
DICTIONARY
  5
69
102
{ACAD_REACTORS
330
C
102
}
330
C
100
AcDbDictionary
281
     1
  3
Standard
350
6A
  0
DICTIONARY
  5
2A
102
{ACAD_REACTORS
330
C
102
}
330
C
100
AcDbDictionary
281
     1
  3
2dWireframe
350
2F
  3
Basic
350
32
  3
Brighten
350
36
  3
ColorChange
350
3A
  3
Conceptual
350
34
  3
Dim
350
35
  3
EdgeColorOff
350
3D
  3
Facepattern
350
39
  3
Flat
350
2B
  3
FlatWithEdges
350
2C
  3
Gouraud
350
2D
  3
GouraudWithEdges
350
2E
  3
Hidden
350
31
  3
JitterOff
350
3B
  3
Linepattern
350
38
  3
OverhangOff
350
3C
  3
Realistic
350
33
  3
Shaded
350
42
  3
Shaded with edges
350
41
  3
Shades of Gray
350
3E
  3
Sketchy
350
3F
  3
Thicken
350
37
  3
Wireframe
350
30
  3
X-Ray
350
40
  0
XRECORD
  5
184
102
{ACAD_REACTORS
330
C
102
}
330
C
100
AcDbXrecord
280
     1
 90
        1
330
6A
  0
DICTIONARY
  5
180
102
{ACAD_REACTORS
330
C
102
}
330
C
100
AcDbDictionary
281
     1
  3
CANNOSCALE
350
181
  3
CENTEREXE
350
189
  3
CENTERLTYPEFILE
350
18A
  3
CMLEADERSTYLE
350
186
  3
CTABLESTYLE
350
185
  0
LAYOUT
  5
1E
102
{ACAD_REACTORS
330
1A
102
}
330
1A
100
AcDbPlotSettings
  1

  2
none_device
  4

  6

 40
0.0
 41
0.0
 42
0.0
 43
0.0
 44
0.0
 45
0.0
 46
0.0
 47
0.0
 48
0.0
 49
0.0
140
0.0
141
0.0
142
1.0
143
1.0
 70
   688
 72
     1
 73
     0
 74
     5
  7

 75
    16
 76
     0
 77
     2
 78
   300
147
1.0
148
0.0
149
0.0
100
AcDbLayout
  1
Layout1
 70
     1
 71
     1
 10
0.0
 20
0.0
 11
420.0
 21
297.0
 12
0.0
 22
0.0
 32
0.0
 14
1.0000000000E+20
 24
1.0000000000E+20
 34
1.0000000000E+20
 15
-1.0000000000E+20
 25
-1.0000000000E+20
 35
-1.0000000000E+20
146
0.0
 13
0.0
 23
0.0
 33
0.0
 16
1.0
 26
0.0
 36
0.0
 17
0.0
 27
1.0
 37
0.0
 76
     0
330
1B
  0
LAYOUT
  5
26
102
{ACAD_REACTORS
330
1A
102
}
330
1A
100
AcDbPlotSettings
  1

  2
none_device
  4

  6

 40
0.0
 41
0.0
 42
0.0
 43
0.0
 44
0.0
 45
0.0
 46
0.0
 47
0.0
 48
0.0
 49
0.0
140
0.0
141
0.0
142
1.0
143
1.0
 70
   688
 72
     1
 73
     0
 74
     5
  7

 75
    16
 76
     0
 77
     2
 78
   300
147
1.0
148
0.0
149
0.0
100
AcDbLayout
  1
Layout2
 70
     1
 71
     2
 10
0.0
 20
0.0
 11
0.0
 21
0.0
 12
0.0
 22
0.0
 32
0.0
 14
0.0
 24
0.0
 34
0.0
 15
0.0
 25
0.0
 35
0.0
146
0.0
 13
0.0
 23
0.0
 33
0.0
 16
1.0
 26
0.0
 36
0.0
 17
0.0
 27
1.0
 37
0.0
 76
     0
330
23
  0
LAYOUT
  5
22
102
{ACAD_REACTORS
330
1A
102
}
330
1A
100
AcDbPlotSettings
  1

  2
none_device
  4
Letter_(8.50_x_11.00_Inches)
  6

 40
6.35
 41
6.35
 42
6.35000508
 43
6.35000508
 44
215.9
 45
279.4
 46
0.0
 47
0.0
 48
0.0
 49
0.0
140
0.0
141
0.0
142
1.0
143
1.0
 70
  1712
 72
     1
 73
     0
 74
     0
  7

 75
     0
 76
     0
 77
     2
 78
   300
147
1.0
148
0.0
149
0.0
100
AcDbLayout
  1
Model
 70
     1
 71
     0
 10
0.0
 20
0.0
 11
640.0
 21
320.0
 12
0.0
 22
0.0
 32
0.0
 14
0.0
 24
0.0
 34
0.0
 15
640.0
 25
320.0
 35
0.0
146
0.0
 13
0.0
 23
0.0
 33
0.0
 16
1.0
 26
0.0
 36
0.0
 17
0.0
 27
1.0
 37
0.0
 76
     0
330
1F
331
29
  0
MATERIAL
  5
45
102
{ACAD_REACTORS
330
43
102
}
330
43
100
AcDbMaterial
  1
ByBlock
 72
     1
 94
      127
  0
MATERIAL
  5
44
102
{ACAD_REACTORS
330
43
102
}
330
43
100
AcDbMaterial
  1
ByLayer
 72
     1
 94
      127
  0
MATERIAL
  5
46
102
{ACAD_REACTORS
330
43
102
}
330
43
100
AcDbMaterial
  1
Global
 72
     1
 94
      127
  0
MLEADERSTYLE
  5
6C
102
{ACAD_REACTORS
330
6B
102
}
330
6B
100
AcDbMLeaderStyle
179
     2
170
     2
171
     1
172
     0
 90
        2
 40
0.0
 41
0.0
173
     1
 91
-1056964608
340
14
 92
       -2
290
     1
 42
2.0
291
     1
 43
8.0
  3
Standard
341
0
 44
4.0
300

342
11
174
     1
178
     6
175
     1
176
     0
 93
-1056964608
 45
4.0
292
     0
297
     0
 46
4.0
343
0
 94
-1056964608
 47
1.0
 49
1.0
140
1.0
293
     1
141
0.0
294
     1
177
     0
142
1.0
295
     0
296
     0
143
3.75
271
     0
272
     9
273
     9
298
     0
  0
MLINESTYLE
  5
18
102
{ACAD_REACTORS
330
17
102
}
330
17
100
AcDbMlineStyle
  2
Standard
 70
     0
  3

 62
   256
 51
90.0
 52
90.0
 71
     2
 49
0.5
 62
   256
  6
BYLAYER
 49
-0.5
 62
   256
  6
BYLAYER
  0
ACDBPLACEHOLDER
  5
F
102
{ACAD_REACTORS
330
E
102
}
330
E
  0
SCALE
  5
48
102
{ACAD_REACTORS
330
47
102
}
330
47
100
AcDbScale
 70
     0
300
1:1
140
1.0
141
1.0
290
     1
  0
SCALE
  5
49
102
{ACAD_REACTORS
330
47
102
}
330
47
100
AcDbScale
 70
     0
300
1:2
140
1.0
141
2.0
290
     0
  0
SCALE
  5
4A
102
{ACAD_REACTORS
330
47
102
}
330
47
100
AcDbScale
 70
     0
300
1:4
140
1.0
141
4.0
290
     0
  0
SCALE
  5
4B
102
{ACAD_REACTORS
330
47
102
}
330
47
100
AcDbScale
 70
     0
300
1:5
140
1.0
141
5.0
290
     0
  0
SCALE
  5
4C
102
{ACAD_REACTORS
330
47
102
}
330
47
100
AcDbScale
 70
     0
300
1:8
140
1.0
141
8.0
290
     0
  0
SCALE
  5
4D
102
{ACAD_REACTORS
330
47
102
}
330
47
100
AcDbScale
 70
     0
300
1:10
140
1.0
141
10.0
290
     0
  0
SCALE
  5
4E
102
{ACAD_REACTORS
330
47
102
}
330
47
100
AcDbScale
 70
     0
300
1:16
140
1.0
141
16.0
290
     0
  0
SCALE
  5
4F
102
{ACAD_REACTORS
330
47
102
}
330
47
100
AcDbScale
 70
     0
300
1:20
140
1.0
141
20.0
290
     0
  0
SCALE
  5
50
102
{ACAD_REACTORS
330
47
102
}
330
47
100
AcDbScale
 70
     0
300
1:30
140
1.0
141
30.0
290
     0
  0
SCALE
  5
51
102
{ACAD_REACTORS
330
47
102
}
330
47
100
AcDbScale
 70
     0
300
1:40
140
1.0
141
40.0
290
     0
  0
SCALE
  5
52
102
{ACAD_REACTORS
330
47
102
}
330
47
100
AcDbScale
 70
     0
300
1:50
140
1.0
141
50.0
290
     0
  0
SCALE
  5
53
102
{ACAD_REACTORS
330
47
102
}
330
47
100
AcDbScale
 70
     0
300
1:100
140
1.0
141
100.0
290
     0
  0
SCALE
  5
54
102
{ACAD_REACTORS
330
47
102
}
330
47
100
AcDbScale
 70
     0
300
2:1
140
2.0
141
1.0
290
     0
  0
SCALE
  5
55
102
{ACAD_REACTORS
330
47
102
}
330
47
100
AcDbScale
 70
     0
300
4:1
140
4.0
141
1.0
290
     0
  0
SCALE
  5
56
102
{ACAD_REACTORS
330
47
102
}
330
47
100
AcDbScale
 70
     0
300
8:1
140
8.0
141
1.0
290
     0
  0
SCALE
  5
57
102
{ACAD_REACTORS
330
47
102
}
330
47
100
AcDbScale
 70
     0
300
10:1
140
10.0
141
1.0
290
     0
  0
SCALE
  5
58
102
{ACAD_REACTORS
330
47
102
}
330
47
100
AcDbScale
 70
     0
300
100:1
140
100.0
141
1.0
290
     0
  0
SCALE
  5
59
102
{ACAD_REACTORS
330
47
102
}
330
47
100
AcDbScale
 70
     0
300
1/128" = 1'-0"
140
0.0078125
141
12.0
290
     0
  0
SCALE
  5
5A
102
{ACAD_REACTORS
330
47
102
}
330
47
100
AcDbScale
 70
     0
300
1/64" = 1'-0"
140
0.015625
141
12.0
290
     0
  0
SCALE
  5
5B
102
{ACAD_REACTORS
330
47
102
}
330
47
100
AcDbScale
 70
     0
300
1/32" = 1'-0"
140
0.03125
141
12.0
290
     0
  0
SCALE
  5
5C
102
{ACAD_REACTORS
330
47
102
}
330
47
100
AcDbScale
 70
     0
300
1/16" = 1'-0"
140
0.0625
141
12.0
290
     0
  0
SCALE
  5
5D
102
{ACAD_REACTORS
330
47
102
}
330
47
100
AcDbScale
 70
     0
300
3/32" = 1'-0"
140
0.09375
141
12.0
290
     0
  0
SCALE
  5
5E
102
{ACAD_REACTORS
330
47
102
}
330
47
100
AcDbScale
 70
     0
300
1/8" = 1'-0"
140
0.125
141
12.0
290
     0
  0
SCALE
  5
5F
102
{ACAD_REACTORS
330
47
102
}
330
47
100
AcDbScale
 70
     0
300
3/16" = 1'-0"
140
0.1875
141
12.0
290
     0
  0
SCALE
  5
60
102
{ACAD_REACTORS
330
47
102
}
330
47
100
AcDbScale
 70
     0
300
1/4" = 1'-0"
140
0.25
141
12.0
290
     0
  0
SCALE
  5
61
102
{ACAD_REACTORS
330
47
102
}
330
47
100
AcDbScale
 70
     0
300
3/8" = 1'-0"
140
0.375
141
12.0
290
     0
  0
SCALE
  5
62
102
{ACAD_REACTORS
330
47
102
}
330
47
100
AcDbScale
 70
     0
300
1/2" = 1'-0"
140
0.5
141
12.0
290
     0
  0
SCALE
  5
63
102
{ACAD_REACTORS
330
47
102
}
330
47
100
AcDbScale
 70
     0
300
3/4" = 1'-0"
140
0.75
141
12.0
290
     0
  0
SCALE
  5
64
102
{ACAD_REACTORS
330
47
102
}
330
47
100
AcDbScale
 70
     0
300
1" = 1'-0"
140
1.0
141
12.0
290
     0
  0
SCALE
  5
65
102
{ACAD_REACTORS
330
47
102
}
330
47
100
AcDbScale
 70
     0
300
1-1/2" = 1'-0"
140
1.5
141
12.0
290
     0
  0
SCALE
  5
66
102
{ACAD_REACTORS
330
47
102
}
330
47
100
AcDbScale
 70
     0
300
3" = 1'-0"
140
3.0
141
12.0
290
     0
  0
SCALE
  5
67
102
{ACAD_REACTORS
330
47
102
}
330
47
100
AcDbScale
 70
     0
300
6" = 1'-0"
140
6.0
141
12.0
290
     0
  0
SCALE
  5
68
102
{ACAD_REACTORS
330
47
102
}
330
47
100
AcDbScale
 70
     0
300
1'-0" = 1'-0"
140
12.0
141
12.0
290
     0
  0
TABLESTYLE
  5
6A
102
{ACAD_REACTORS
330
69
102
}
102
{ACAD_XDICTIONARY
360
182
102
}
330
69
100
AcDbTableStyle
  3
Standard
 70
     0
 71
     0
 40
0.06
 41
0.06
280
     0
281
     0
  7
STANDARD
140
4.5
170
     2
 62
     0
 63
   257
283
     0
 90
        4
 91
        0
  1

274
    -2
284
     1
 64
     0
275
    -2
285
     1
 65
     0
276
    -2
286
     1
 66
     0
277
    -2
287
     1
 67
     0
278
    -2
288
     1
 68
     0
279
    -2
289
     1
 69
     0
  7
STANDARD
140
6.0
170
     5
 62
     0
 63
   257
283
     0
 90
        4
 91
        0
  1

274
    -2
284
     1
 64
     0
275
    -2
285
     1
 65
     0
276
    -2
286
     1
 66
     0
277
    -2
287
     1
 67
     0
278
    -2
288
     1
 68
     0
279
    -2
289
     1
 69
     0
  7
STANDARD
140
4.5
170
     5
 62
     0
 63
   257
283
     0
 90
        4
 91
        0
  1

274
    -2
284
     1
 64
     0
275
    -2
285
     1
 65
     0
276
    -2
286
     1
 66
     0
277
    -2
287
     1
 67
     0
278
    -2
288
     1
 68
     0
279
    -2
289
     1
 69
     0
  0
VISUALSTYLE
  5
2F
102
{ACAD_REACTORS
330
2A
102
}
330
2A
100
AcDbVisualStyle
  2
2dWireframe
 70
     4
177
     3
291
     0
 70
    58
 90
        0
176
     1
 90
        2
176
     1
 90
        0
176
     1
 90
        0
176
     1
 40
0.6
176
     1
 40
30.0
176
     1
 62
     7
420
 16777215
176
     1
 90
        1
176
     1
 90
        4
176
     1
 62
     7
176
     1
 62
   257
176
     1
 90
        1
176
     1
 90
        1
176
     1
 40
1.0
176
     1
 90
        0
176
     1
 62
   257
176
     1
 40
1.0
176
     1
 90
        1
176
     1
 90
        6
176
     1
 90
        2
176
     1
 62
     7
176
     1
 90
        5
176
     1
 90
        0
176
     1
 90
        0
176
     1
290
     0
176
     1
 90
        1
176
     1
 40
0.0
176
     1
 90
        0
176
     1
290
     1
176
     1
290
     1
176
     1
290
     0
176
     1
290
     0
176
     1
290
     0
176
     1
290
     0
176
     1
290
     0
176
     1
290
     0
176
     1
290
     0
176
     1
 90
       50
176
     1
 40
0.0
176
     1
 40
1.0
176
     1
 90
        0
176
     1
 62
    18
420
        0
176
     1
 90
       50
176
     1
 90
        3
176
     1
 62
     5
420
      255
176
     1
290
     0
176
     1
 90
       50
176
     1
 90
       50
176
     1
 90
       50
176
     1
290
     0
176
     1
 90
       50
176
     1
 62
   256
176
     0
 40
1.0
176
     0
 90
        2
176
     1
  1
strokes_ogs.tif
176
     1
290
     0
176
     1
 40
1.0
176
     1
 40
1.0
176
     1
  0
VISUALSTYLE
  5
32
102
{ACAD_REACTORS
330
2A
102
}
330
2A
100
AcDbVisualStyle
  2
Basic
 70
     7
177
     3
291
     1
 70
    58
 90
        1
176
     1
 90
        0
176
     1
 90
        1
176
     1
 90
        0
176
     1
 40
0.6
176
     1
 40
30.0
176
     1
 62
     7
420
 16777215
176
     1
 90
        0
176
     1
 90
        4
176
     1
 62
     7
176
     1
 62
   257
176
     1
 90
        1
176
     1
 90
        1
176
     1
 40
1.0
176
     1
 90
        8
176
     1
 62
     7
176
     1
 40
1.0
176
     1
 90
        1
176
     1
 90
        6
176
     1
 90
        2
176
     1
 62
     7
176
     1
 90
        5
176
     1
 90
        0
176
     1
 90
        0
176
     1
290
     0
176
     1
 90
        1
176
     1
 40
0.0
176
     1
 90
        0
176
     1
290
     0
176
     1
290
     1
176
     1
290
     1
176
     1
290
     0
176
     1
290
     0
176
     1
290
     0
176
     1
290
     0
176
     1
290
     0
176
     1
290
     0
176
     1
 90
       50
176
     1
 40
0.0
176
     1
 40
1.0
176
     1
 90
        0
176
     1
 62
    18
420
        0
176
     1
 90
       50
176
     1
 90
        3
176
     1
 62
     5
420
      255
176
     1
290
     0
176
     1
 90
       50
176
     1
 90
       50
176
     1
 90
       50
176
     1
290
     0
176
     1
 90
       50
176
     1
 62
   256
176
     0
 40
1.0
176
     0
 90
        2
176
     1
  1
strokes_ogs.tif
176
     1
290
     0
176
     1
 40
1.0
176
     1
 40
1.0
176
     1
  0
VISUALSTYLE
  5
36
102
{ACAD_REACTORS
330
2A
102
}
330
2A
100
AcDbVisualStyle
  2
Brighten
 70
    12
177
     3
291
     1
 70
    58
 90
        2
176
     1
 90
        2
176
     1
 90
        0
176
     1
 90
        0
176
     1
 40
0.6
176
     1
 40
30.0
176
     1
 62
     7
420
 16777215
176
     1
 90
        1
176
     1
 90
        4
176
     1
 62
     7
176
     1
 62
   257
176
     1
 90
        1
176
     1
 90
        1
176
     1
 40
1.0
176
     1
 90
        8
176
     1
 62
     7
176
     1
 40
1.0
176
     1
 90
        1
176
     1
 90
        6
176
     1
 90
        2
176
     1
 62
     7
176
     1
 90
        5
176
     1
 90
        0
176
     1
 90
        0
176
     1
290
     0
176
     1
 90
        1
176
     1
 40
50.0
176
     1
 90
        0
176
     1
290
     0
176
     1
290
     1
176
     1
290
     1
176
     1
290
     0
176
     1
290
     0
176
     1
290
     0
176
     1
290
     0
176
     1
290
     0
176
     1
290
     0
176
     1
 90
       50
176
     1
 40
0.0
176
     1
 40
1.0
176
     1
 90
        0
176
     1
 62
    18
420
        0
176
     1
 90
       50
176
     1
 90
        3
176
     1
 62
     5
420
      255
176
     1
290
     0
176
     1
 90
       50
176
     1
 90
       50
176
     1
 90
       50
176
     1
290
     0
176
     1
 90
       50
176
     1
 62
   256
176
     0
 40
1.0
176
     0
 90
        2
176
     1
  1
strokes_ogs.tif
176
     1
290
     0
176
     1
 40
1.0
176
     1
 40
1.0
176
     1
  0
VISUALSTYLE
  5
3A
102
{ACAD_REACTORS
330
2A
102
}
330
2A
100
AcDbVisualStyle
  2
ColorChange
 70
    16
177
     3
291
     1
 70
    58
 90
        2
176
     1
 90
        2
176
     1
 90
        3
176
     1
 90
        0
176
     1
 40
0.6
176
     1
 40
30.0
176
     1
 62
     8
420
  8421504
176
     1
 90
        1
176
     1
 90
        4
176
     1
 62
     7
176
     1
 62
   257
176
     1
 90
        1
176
     1
 90
        1
176
     1
 40
1.0
176
     1
 90
        8
176
     1
 62
     8
420
  8421504
176
     1
 40
1.0
176
     1
 90
        1
176
     1
 90
        6
176
     1
 90
        2
176
     1
 62
     7
176
     1
 90
        5
176
     1
 90
        0
176
     1
 90
        0
176
     1
290
     0
176
     1
 90
        1
176
     1
 40
0.0
176
     1
 90
        0
176
     1
290
     0
176
     1
290
     1
176
     1
290
     1
176
     1
290
     0
176
     1
290
     0
176
     1
290
     0
176
     1
290
     0
176
     1
290
     0
176
     1
290
     0
176
     1
 90
       50
176
     1
 40
0.0
176
     1
 40
1.0
176
     1
 90
        0
176
     1
 62
    18
420
        0
176
     1
 90
       50
176
     1
 90
        3
176
     1
 62
     5
420
      255
176
     1
290
     0
176
     1
 90
       50
176
     1
 90
       50
176
     1
 90
       50
176
     1
290
     0
176
     1
 90
       50
176
     1
 62
   256
176
     0
 40
1.0
176
     0
 90
        2
176
     1
  1
strokes_ogs.tif
176
     1
290
     0
176
     1
 40
1.0
176
     1
 40
1.0
176
     1
  0
VISUALSTYLE
  5
34
102
{ACAD_REACTORS
330
2A
102
}
330
2A
100
AcDbVisualStyle
  2
Conceptual
 70
     9
177
     3
291
     0
 70
    58
 90
        3
176
     1
 90
        2
176
     1
 90
        0
176
     1
 90
        0
176
     1
 40
0.6
176
     1
 40
30.0
176
     1
 62
     7
420
 16777215
176
     1
 90
        2
176
     1
 90
        2
176
     1
 62
     7
176
     1
 62
   257
176
     1
 90
        1
176
     1
 90
        1
176
     1
 40
179.0
176
     1
 90
        8
176
     1
 62
     7
176
     1
 40
1.0
176
     1
 90
        1
176
     1
 90
        6
176
     1
 90
        2
176
     1
 62
     7
176
     1
 90
        3
176
     1
 90
        0
176
     1
 90
        0
176
     1
290
     0
176
     1
 90
        1
176
     1
 40
0.0
176
     1
 90
        0
176
     1
290
     0
176
     1
290
     1
176
     1
290
     1
176
     1
290
     0
176
     1
290
     0
176
     1
290
     0
176
     1
290
     0
176
     1
290
     0
176
     1
290
     0
176
     1
 90
       50
176
     1
 40
0.0
176
     1
 40
1.0
176
     1
 90
        0
176
     1
 62
    18
420
        0
176
     1
 90
       50
176
     1
 90
        3
176
     1
 62
     5
420
      255
176
     1
290
     0
176
     1
 90
       50
176
     1
 90
       50
176
     1
 90
       50
176
     1
290
     0
176
     1
 90
       50
176
     1
 62
   256
176
     0
 40
1.0
176
     0
 90
        2
176
     1
  1
strokes_ogs.tif
176
     1
290
     0
176
     1
 40
1.0
176
     1
 40
1.0
176
     1
  0
VISUALSTYLE
  5
35
102
{ACAD_REACTORS
330
2A
102
}
330
2A
100
AcDbVisualStyle
  2
Dim
 70
    11
177
     3
291
     1
 70
    58
 90
        2
176
     1
 90
        2
176
     1
 90
        0
176
     1
 90
        0
176
     1
 40
0.6
176
     1
 40
30.0
176
     1
 62
     7
420
 16777215
176
     1
 90
        1
176
     1
 90
        4
176
     1
 62
     7
176
     1
 62
   257
176
     1
 90
        1
176
     1
 90
        1
176
     1
 40
1.0
176
     1
 90
        8
176
     1
 62
     7
176
     1
 40
1.0
176
     1
 90
        1
176
     1
 90
        6
176
     1
 90
        2
176
     1
 62
     7
176
     1
 90
        5
176
     1
 90
        0
176
     1
 90
        0
176
     1
290
     0
176
     1
 90
        1
176
     1
 40
-50.0
176
     1
 90
        0
176
     1
290
     0
176
     1
290
     1
176
     1
290
     1
176
     1
290
     0
176
     1
290
     0
176
     1
290
     0
176
     1
290
     0
176
     1
290
     0
176
     1
290
     0
176
     1
 90
       50
176
     1
 40
0.0
176
     1
 40
1.0
176
     1
 90
        0
176
     1
 62
    18
420
        0
176
     1
 90
       50
176
     1
 90
        3
176
     1
 62
     5
420
      255
176
     1
290
     0
176
     1
 90
       50
176
     1
 90
       50
176
     1
 90
       50
176
     1
290
     0
176
     1
 90
       50
176
     1
 62
   256
176
     0
 40
1.0
176
     0
 90
        2
176
     1
  1
strokes_ogs.tif
176
     1
290
     0
176
     1
 40
1.0
176
     1
 40
1.0
176
     1
  0
VISUALSTYLE
  5
3D
102
{ACAD_REACTORS
330
2A
102
}
330
2A
100
AcDbVisualStyle
  2
EdgeColorOff
 70
    22
177
     3
291
     1
 70
    58
 90
        2
176
     0
 90
        2
176
     0
 90
        0
176
     0
 90
        0
176
     0
 40
0.6
176
     0
 40
30.0
176
     0
 62
     7
420
 16777215
176
     0
 90
        1
176
     0
 90
        4
176
     0
 62
     7
176
     0
 62
   257
176
     0
 90
        1
176
     0
 90
        1
176
     0
 40
1.0
176
     0
 90
        8
176
     2
 62
     7
176
     0
 40
1.0
176
     0
 90
        1
176
     0
 90
        6
176
     0
 90
        2
176
     0
 62
     7
176
     0
 90
        5
176
     0
 90
        0
176
     0
 90
        0
176
     0
290
     0
176
     0
 90
        1
176
     0
 40
0.0
176
     0
 90
        0
176
     0
290
     0
176
     0
290
     1
176
     0
290
     1
176
     0
290
     0
176
     0
290
     0
176
     0
290
     0
176
     0
290
     0
176
     0
290
     0
176
     0
290
     0
176
     0
 90
       50
176
     0
 40
0.0
176
     0
 40
1.0
176
     0
 90
        0
176
     0
 62
    18
420
        0
176
     0
 90
       50
176
     0
 90
        3
176
     0
 62
     5
420
      255
176
     0
290
     0
176
     0
 90
       50
176
     0
 90
       50
176
     0
 90
       50
176
     0
290
     0
176
     0
 90
       50
176
     0
 62
   256
176
     0
 40
1.0
176
     0
 90
        2
176
     0
  1
strokes_ogs.tif
176
     0
290
     0
176
     0
 40
1.0
176
     0
 40
1.0
176
     0
  0
VISUALSTYLE
  5
39
102
{ACAD_REACTORS
330
2A
102
}
330
2A
100
AcDbVisualStyle
  2
Facepattern
 70
    15
177
     3
291
     1
 70
    58
 90
        2
176
     1
 90
        2
176
     1
 90
        0
176
     1
 90
        0
176
     1
 40
0.6
176
     1
 40
30.0
176
     1
 62
     7
420
 16777215
176
     1
 90
        1
176
     1
 90
        4
176
     1
 62
     7
176
     1
 62
   257
176
     1
 90
        1
176
     1
 90
        1
176
     1
 40
1.0
176
     1
 90
        8
176
     1
 62
     7
176
     1
 40
1.0
176
     1
 90
        1
176
     1
 90
        6
176
     1
 90
        2
176
     1
 62
     7
176
     1
 90
        5
176
     1
 90
        0
176
     1
 90
        0
176
     1
290
     0
176
     1
 90
        1
176
     1
 40
0.0
176
     1
 90
        0
176
     1
290
     0
176
     1
290
     1
176
     1
290
     1
176
     1
290
     0
176
     1
290
     0
176
     1
290
     0
176
     1
290
     0
176
     1
290
     0
176
     1
290
     0
176
     1
 90
       50
176
     1
 40
0.0
176
     1
 40
1.0
176
     1
 90
        0
176
     1
 62
    18
420
        0
176
     1
 90
       50
176
     1
 90
        3
176
     1
 62
     5
420
      255
176
     1
290
     0
176
     1
 90
       50
176
     1
 90
       50
176
     1
 90
       50
176
     1
290
     0
176
     1
 90
       50
176
     1
 62
   256
176
     0
 40
1.0
176
     0
 90
        2
176
     1
  1
strokes_ogs.tif
176
     1
290
     0
176
     1
 40
1.0
176
     1
 40
1.0
176
     1
  0
VISUALSTYLE
  5
2B
102
{ACAD_REACTORS
330
2A
102
}
330
2A
100
AcDbVisualStyle
  2
Flat
 70
     0
177
     3
291
     1
 70
    58
 90
        2
176
     1
 90
        1
176
     1
 90
        1
176
     1
 90
        2
176
     1
 40
0.6
176
     1
 40
30.0
176
     1
 62
     7
420
 16777215
176
     1
 90
        0
176
     1
 90
        0
176
     1
 62
     7
176
     1
 62
   257
176
     1
 90
        1
176
     1
 90
        1
176
     1
 40
1.0
176
     1
 90
        8
176
     1
 62
     7
176
     1
 40
1.0
176
     1
 90
        1
176
     1
 90
        6
176
     1
 90
        2
176
     1
 62
     7
176
     1
 90
        5
176
     1
 90
        0
176
     1
 90
        0
176
     1
290
     0
176
     1
 90
       13
176
     1
 40
0.0
176
     1
 90
        0
176
     1
290
     0
176
     1
290
     1
176
     1
290
     1
176
     1
290
     0
176
     1
290
     0
176
     1
290
     0
176
     1
290
     0
176
     1
290
     0
176
     1
290
     0
176
     1
 90
       50
176
     1
 40
0.0
176
     1
 40
1.0
176
     1
 90
        0
176
     1
 62
    18
420
        0
176
     1
 90
       50
176
     1
 90
        3
176
     1
 62
     5
420
      255
176
     1
290
     0
176
     1
 90
       50
176
     1
 90
       50
176
     1
 90
       50
176
     1
290
     0
176
     1
 90
       50
176
     1
 62
   256
176
     0
 40
1.0
176
     0
 90
        2
176
     1
  1
strokes_ogs.tif
176
     1
290
     0
176
     1
 40
1.0
176
     1
 40
1.0
176
     1
  0
VISUALSTYLE
  5
2C
102
{ACAD_REACTORS
330
2A
102
}
330
2A
100
AcDbVisualStyle
  2
FlatWithEdges
 70
     1
177
     3
291
     1
 70
    58
 90
        2
176
     1
 90
        1
176
     1
 90
        1
176
     1
 90
        2
176
     1
 40
0.6
176
     1
 40
30.0
176
     1
 62
     7
420
 16777215
176
     1
 90
        1
176
     1
 90
        0
176
     1
 62
     7
176
     1
 62
   257
176
     1
 90
        1
176
     1
 90
        1
176
     1
 40
1.0
176
     1
 90
        0
176
     1
 62
   257
176
     1
 40
1.0
176
     1
 90
        1
176
     1
 90
        6
176
     1
 90
        2
176
     1
 62
     7
176
     1
 90
        5
176
     1
 90
        0
176
     1
 90
        0
176
     1
290
     0
176
     1
 90
       13
176
     1
 40
0.0
176
     1
 90
        0
176
     1
290
     0
176
     1
290
     1
176
     1
290
     1
176
     1
290
     0
176
     1
290
     0
176
     1
290
     0
176
     1
290
     0
176
     1
290
     0
176
     1
290
     0
176
     1
 90
       50
176
     1
 40
0.0
176
     1
 40
1.0
176
     1
 90
        0
176
     1
 62
    18
420
        0
176
     1
 90
       50
176
     1
 90
        3
176
     1
 62
     5
420
      255
176
     1
290
     0
176
     1
 90
       50
176
     1
 90
       50
176
     1
 90
       50
176
     1
290
     0
176
     1
 90
       50
176
     1
 62
   256
176
     0
 40
1.0
176
     0
 90
        2
176
     1
  1
strokes_ogs.tif
176
     1
290
     0
176
     1
 40
1.0
176
     1
 40
1.0
176
     1
  0
VISUALSTYLE
  5
2D
102
{ACAD_REACTORS
330
2A
102
}
330
2A
100
AcDbVisualStyle
  2
Gouraud
 70
     2
177
     3
291
     1
 70
    58
 90
        2
176
     1
 90
        2
176
     1
 90
        1
176
     1
 90
        2
176
     1
 40
0.6
176
     1
 40
30.0
176
     1
 62
     7
420
 16777215
176
     1
 90
        0
176
     1
 90
        0
176
     1
 62
     7
176
     1
 62
   257
176
     1
 90
        1
176
     1
 90
        1
176
     1
 40
1.0
176
     1
 90
        0
176
     1
 62
     7
176
     1
 40
1.0
176
     1
 90
        1
176
     1
 90
        6
176
     1
 90
        2
176
     1
 62
     7
176
     1
 90
        5
176
     1
 90
        0
176
     1
 90
        0
176
     1
290
     0
176
     1
 90
       13
176
     1
 40
0.0
176
     1
 90
        0
176
     1
290
     0
176
     1
290
     1
176
     1
290
     1
176
     1
290
     0
176
     1
290
     0
176
     1
290
     0
176
     1
290
     0
176
     1
290
     0
176
     1
290
     0
176
     1
 90
       50
176
     1
 40
0.0
176
     1
 40
1.0
176
     1
 90
        0
176
     1
 62
    18
420
        0
176
     1
 90
       50
176
     1
 90
        3
176
     1
 62
     5
420
      255
176
     1
290
     0
176
     1
 90
       50
176
     1
 90
       50
176
     1
 90
       50
176
     1
290
     0
176
     1
 90
       50
176
     1
 62
   256
176
     0
 40
1.0
176
     0
 90
        2
176
     1
  1
strokes_ogs.tif
176
     1
290
     0
176
     1
 40
1.0
176
     1
 40
1.0
176
     1
  0
VISUALSTYLE
  5
2E
102
{ACAD_REACTORS
330
2A
102
}
330
2A
100
AcDbVisualStyle
  2
GouraudWithEdges
 70
     3
177
     3
291
     1
 70
    58
 90
        2
176
     1
 90
        2
176
     1
 90
        1
176
     1
 90
        2
176
     1
 40
0.6
176
     1
 40
30.0
176
     1
 62
     7
420
 16777215
176
     1
 90
        1
176
     1
 90
        0
176
     1
 62
     7
176
     1
 62
   257
176
     1
 90
        1
176
     1
 90
        1
176
     1
 40
1.0
176
     1
 90
        0
176
     1
 62
   257
176
     1
 40
1.0
176
     1
 90
        1
176
     1
 90
        6
176
     1
 90
        2
176
     1
 62
     7
176
     1
 90
        5
176
     1
 90
        0
176
     1
 90
        0
176
     1
290
     0
176
     1
 90
       13
176
     1
 40
0.0
176
     1
 90
        0
176
     1
290
     0
176
     1
290
     1
176
     1
290
     1
176
     1
290
     0
176
     1
290
     0
176
     1
290
     0
176
     1
290
     0
176
     1
290
     0
176
     1
290
     0
176
     1
 90
       50
176
     1
 40
0.0
176
     1
 40
1.0
176
     1
 90
        0
176
     1
 62
    18
420
        0
176
     1
 90
       50
176
     1
 90
        3
176
     1
 62
     5
420
      255
176
     1
290
     0
176
     1
 90
       50
176
     1
 90
       50
176
     1
 90
       50
176
     1
290
     0
176
     1
 90
       50
176
     1
 62
   256
176
     0
 40
1.0
176
     0
 90
        2
176
     1
  1
strokes_ogs.tif
176
     1
290
     0
176
     1
 40
1.0
176
     1
 40
1.0
176
     1
  0
VISUALSTYLE
  5
31
102
{ACAD_REACTORS
330
2A
102
}
330
2A
100
AcDbVisualStyle
  2
Hidden
 70
     6
177
     3
291
     0
 70
    58
 90
        1
176
     1
 90
        2
176
     1
 90
        2
176
     1
 90
        0
176
     1
 40
0.6
176
     1
 40
30.0
176
     1
 62
     7
420
 16777215
176
     1
 90
        2
176
     1
 90
        2
176
     1
 62
     7
176
     1
 62
   257
176
     1
 90
        2
176
     1
 90
        1
176
     1
 40
40.0
176
     1
 90
        0
176
     1
 62
   257
176
     1
 40
1.0
176
     1
 90
        1
176
     1
 90
        6
176
     1
 90
        2
176
     1
 62
     7
176
     1
 90
        3
176
     1
 90
        0
176
     1
 90
        0
176
     1
290
     0
176
     1
 90
        1
176
     1
 40
0.0
176
     1
 90
        0
176
     1
290
     0
176
     1
290
     1
176
     1
290
     1
176
     1
290
     0
176
     1
290
     0
176
     1
290
     0
176
     1
290
     0
176
     1
290
     0
176
     1
290
     0
176
     1
 90
       50
176
     1
 40
0.0
176
     1
 40
1.0
176
     1
 90
        0
176
     1
 62
    18
420
        0
176
     1
 90
       50
176
     1
 90
        3
176
     1
 62
     5
420
      255
176
     1
290
     0
176
     1
 90
       50
176
     1
 90
       50
176
     1
 90
       50
176
     1
290
     0
176
     1
 90
       50
176
     1
 62
   256
176
     0
 40
1.0
176
     0
 90
        2
176
     1
  1
strokes_ogs.tif
176
     1
290
     0
176
     1
 40
1.0
176
     1
 40
1.0
176
     1
  0
VISUALSTYLE
  5
3B
102
{ACAD_REACTORS
330
2A
102
}
330
2A
100
AcDbVisualStyle
  2
JitterOff
 70
    20
177
     3
291
     1
 70
    58
 90
        2
176
     0
 90
        2
176
     0
 90
        0
176
     0
 90
        0
176
     0
 40
0.6
176
     0
 40
30.0
176
     0
 62
     7
420
 16777215
176
     0
 90
        1
176
     0
 90
        4
176
     0
 62
     7
176
     0
 62
   257
176
     0
 90
        1
176
     0
 90
        1
176
     0
 40
1.0
176
     0
 90
       10
176
     2
 62
     7
176
     0
 40
1.0
176
     0
 90
        1
176
     0
 90
        6
176
     0
 90
        2
176
     0
 62
     7
176
     0
 90
        5
176
     0
 90
        0
176
     0
 90
        0
176
     0
290
     0
176
     0
 90
        1
176
     0
 40
0.0
176
     0
 90
        0
176
     0
290
     0
176
     0
290
     1
176
     0
290
     1
176
     0
290
     0
176
     0
290
     0
176
     0
290
     0
176
     0
290
     0
176
     0
290
     0
176
     0
290
     0
176
     0
 90
       50
176
     0
 40
0.0
176
     0
 40
1.0
176
     0
 90
        0
176
     0
 62
    18
420
        0
176
     0
 90
       50
176
     0
 90
        3
176
     0
 62
     5
420
      255
176
     0
290
     0
176
     0
 90
       50
176
     0
 90
       50
176
     0
 90
       50
176
     0
290
     0
176
     0
 90
       50
176
     0
 62
   256
176
     0
 40
1.0
176
     0
 90
        2
176
     0
  1
strokes_ogs.tif
176
     0
290
     0
176
     0
 40
1.0
176
     0
 40
1.0
176
     0
  0
VISUALSTYLE
  5
38
102
{ACAD_REACTORS
330
2A
102
}
330
2A
100
AcDbVisualStyle
  2
Linepattern
 70
    14
177
     3
291
     1
 70
    58
 90
        2
176
     1
 90
        2
176
     1
 90
        0
176
     1
 90
        0
176
     1
 40
0.6
176
     1
 40
30.0
176
     1
 62
     7
420
 16777215
176
     1
 90
        1
176
     1
 90
        4
176
     1
 62
     7
176
     1
 62
   257
176
     1
 90
        7
176
     1
 90
        7
176
     1
 40
1.0
176
     1
 90
        8
176
     1
 62
     7
176
     1
 40
1.0
176
     1
 90
        1
176
     1
 90
        6
176
     1
 90
        2
176
     1
 62
     7
176
     1
 90
        5
176
     1
 90
        0
176
     1
 90
        0
176
     1
290
     0
176
     1
 90
        1
176
     1
 40
0.0
176
     1
 90
        0
176
     1
290
     0
176
     1
290
     1
176
     1
290
     1
176
     1
290
     0
176
     1
290
     0
176
     1
290
     0
176
     1
290
     0
176
     1
290
     0
176
     1
290
     0
176
     1
 90
       50
176
     1
 40
0.0
176
     1
 40
1.0
176
     1
 90
        0
176
     1
 62
    18
420
        0
176
     1
 90
       50
176
     1
 90
        3
176
     1
 62
     5
420
      255
176
     1
290
     0
176
     1
 90
       50
176
     1
 90
       50
176
     1
 90
       50
176
     1
290
     0
176
     1
 90
       50
176
     1
 62
   256
176
     0
 40
1.0
176
     0
 90
        2
176
     1
  1
strokes_ogs.tif
176
     1
290
     0
176
     1
 40
1.0
176
     1
 40
1.0
176
     1
  0
VISUALSTYLE
  5
3C
102
{ACAD_REACTORS
330
2A
102
}
330
2A
100
AcDbVisualStyle
  2
OverhangOff
 70
    21
177
     3
291
     1
 70
    58
 90
        2
176
     0
 90
        2
176
     0
 90
        0
176
     0
 90
        0
176
     0
 40
0.6
176
     0
 40
30.0
176
     0
 62
     7
420
 16777215
176
     0
 90
        1
176
     0
 90
        4
176
     0
 62
     7
176
     0
 62
   257
176
     0
 90
        1
176
     0
 90
        1
176
     0
 40
1.0
176
     0
 90
        9
176
     2
 62
     7
176
     0
 40
1.0
176
     0
 90
        1
176
     0
 90
        6
176
     0
 90
        2
176
     0
 62
     7
176
     0
 90
        5
176
     0
 90
        0
176
     0
 90
        0
176
     0
290
     0
176
     0
 90
        1
176
     0
 40
0.0
176
     0
 90
        0
176
     0
290
     0
176
     0
290
     1
176
     0
290
     1
176
     0
290
     0
176
     0
290
     0
176
     0
290
     0
176
     0
290
     0
176
     0
290
     0
176
     0
290
     0
176
     0
 90
       50
176
     0
 40
0.0
176
     0
 40
1.0
176
     0
 90
        0
176
     0
 62
    18
420
        0
176
     0
 90
       50
176
     0
 90
        3
176
     0
 62
     5
420
      255
176
     0
290
     0
176
     0
 90
       50
176
     0
 90
       50
176
     0
 90
       50
176
     0
290
     0
176
     0
 90
       50
176
     0
 62
   256
176
     0
 40
1.0
176
     0
 90
        2
176
     0
  1
strokes_ogs.tif
176
     0
290
     0
176
     0
 40
1.0
176
     0
 40
1.0
176
     0
  0
VISUALSTYLE
  5
33
102
{ACAD_REACTORS
330
2A
102
}
330
2A
100
AcDbVisualStyle
  2
Realistic
 70
     8
177
     3
291
     0
 70
    58
 90
        2
176
     1
 90
        3
176
     1
 90
        0
176
     1
 90
        2
176
     1
 40
0.6
176
     1
 40
30.0
176
     1
 62
     7
420
 16777215
176
     1
 90
        0
176
     1
 90
        0
176
     1
 62
     7
176
     1
 62
   257
176
     1
 90
        1
176
     1
 90
        1
176
     1
 40
1.0
176
     1
 90
        8
176
     1
 62
   257
176
     1
 40
1.0
176
     1
 90
        1
176
     1
 90
        6
176
     1
 90
        2
176
     1
 62
     7
176
     1
 90
        3
176
     1
 90
        0
176
     1
 90
        0
176
     1
290
     0
176
     1
 90
       13
176
     1
 40
0.0
176
     1
 90
        0
176
     1
290
     0
176
     1
290
     1
176
     1
290
     1
176
     1
290
     0
176
     1
290
     0
176
     1
290
     0
176
     1
290
     0
176
     1
290
     0
176
     1
290
     0
176
     1
 90
       50
176
     1
 40
0.0
176
     1
 40
1.0
176
     1
 90
        0
176
     1
 62
    18
420
        0
176
     1
 90
       50
176
     1
 90
        3
176
     1
 62
     5
420
      255
176
     1
290
     0
176
     1
 90
       50
176
     1
 90
       50
176
     1
 90
       50
176
     1
290
     0
176
     1
 90
       50
176
     1
 62
   256
176
     0
 40
1.0
176
     0
 90
        2
176
     1
  1
strokes_ogs.tif
176
     1
290
     0
176
     1
 40
1.0
176
     1
 40
1.0
176
     1
  0
VISUALSTYLE
  5
42
102
{ACAD_REACTORS
330
2A
102
}
330
2A
100
AcDbVisualStyle
  2
Shaded
 70
    27
177
     3
291
     0
 70
    58
 90
        2
176
     1
 90
        2
176
     1
 90
        1
176
     1
 90
        2
176
     1
 40
0.6
176
     1
 40
30.0
176
     1
 62
     7
420
 16777215
176
     1
 90
        0
176
     1
 90
        4
176
     1
 62
     7
176
     1
 62
   257
176
     1
 90
        1
176
     1
 90
        1
176
     1
 40
1.0
176
     1
 90
        8
176
     1
 62
   257
176
     1
 40
1.0
176
     1
 90
        1
176
     1
 90
        6
176
     1
 90
        2
176
     1
 62
     8
420
  7895160
176
     1
 90
        3
176
     1
 90
        0
176
     1
 90
        0
176
     1
290
     0
176
     1
 90
        5
176
     1
 40
0.0
176
     1
 90
        0
176
     1
290
     0
176
     1
290
     1
176
     1
290
     1
176
     1
290
     0
176
     1
290
     0
176
     1
290
     0
176
     1
290
     0
176
     1
290
     0
176
     1
290
     0
176
     1
 90
       50
176
     1
 40
0.0
176
     1
 40
1.0
176
     1
 90
        0
176
     1
 62
    18
420
        0
176
     1
 90
       50
176
     1
 90
        3
176
     1
 62
     5
420
      255
176
     1
290
     0
176
     1
 90
       50
176
     1
 90
       50
176
     1
 90
       50
176
     1
290
     0
176
     1
 90
       50
176
     1
 62
   256
176
     0
 40
1.0
176
     0
 90
        2
176
     1
  1
strokes_ogs.tif
176
     1
290
     0
176
     1
 40
1.0
176
     1
 40
1.0
176
     1
  0
VISUALSTYLE
  5
41
102
{ACAD_REACTORS
330
2A
102
}
330
2A
100
AcDbVisualStyle
  2
Shaded with edges
 70
    26
177
     3
291
     0
 70
    58
 90
        2
176
     1
 90
        2
176
     1
 90
        1
176
     1
 90
        2
176
     1
 40
0.6
176
     1
 40
30.0
176
     1
 62
     7
420
 16777215
176
     1
 90
        1
176
     1
 90
       10
176
     1
 62
     7
176
     1
 62
   257
176
     1
 90
        2
176
     1
 90
        1
176
     1
 40
1.0
176
     1
 90
        8
176
     1
 62
   257
176
     1
 40
1.0
176
     1
 90
        1
176
     1
 90
        6
176
     1
 90
        2
176
     1
 62
     7
176
     1
 90
        3
176
     1
 90
        0
176
     1
 90
        0
176
     1
290
     0
176
     1
 90
        5
176
     1
 40
0.0
176
     1
 90
        0
176
     1
290
     0
176
     1
290
     1
176
     1
290
     1
176
     1
290
     0
176
     1
290
     0
176
     1
290
     0
176
     1
290
     0
176
     1
290
     0
176
     1
290
     0
176
     1
 90
       50
176
     1
 40
0.0
176
     1
 40
1.0
176
     1
 90
        0
176
     1
 62
    18
420
        0
176
     1
 90
       50
176
     1
 90
        3
176
     1
 62
     5
420
      255
176
     1
290
     0
176
     1
 90
       50
176
     1
 90
       50
176
     1
 90
       50
176
     1
290
     0
176
     1
 90
       50
176
     1
 62
   256
176
     0
 40
1.0
176
     0
 90
        2
176
     1
  1
strokes_ogs.tif
176
     1
290
     0
176
     1
 40
1.0
176
     1
 40
1.0
176
     1
  0
VISUALSTYLE
  5
3E
102
{ACAD_REACTORS
330
2A
102
}
330
2A
100
AcDbVisualStyle
  2
Shades of Gray
 70
    23
177
     3
291
     0
 70
    58
 90
        2
176
     1
 90
        2
176
     1
 90
        3
176
     1
 90
        0
176
     1
 40
0.6
176
     1
 40
30.0
176
     1
 62
     7
420
 16777215
176
     1
 90
        2
176
     1
 90
        2
176
     1
 62
     7
176
     1
 62
     7
176
     1
 90
        1
176
     1
 90
        1
176
     1
 40
40.0
176
     1
 90
        8
176
     1
 62
     7
176
     1
 40
1.0
176
     1
 90
        1
176
     1
 90
        6
176
     1
 90
        2
176
     1
 62
     7
176
     1
 90
        3
176
     1
 90
        0
176
     1
 90
        0
176
     1
290
     0
176
     1
 90
        1
176
     1
 40
0.0
176
     1
 90
        0
176
     1
290
     0
176
     1
290
     1
176
     1
290
     1
176
     1
290
     0
176
     1
290
     0
176
     1
290
     0
176
     1
290
     0
176
     1
290
     0
176
     1
290
     0
176
     1
 90
       50
176
     1
 40
0.0
176
     1
 40
1.0
176
     1
 90
        0
176
     1
 62
    18
420
        0
176
     1
 90
       50
176
     1
 90
        3
176
     1
 62
     5
420
      255
176
     1
290
     0
176
     1
 90
       50
176
     1
 90
       50
176
     1
 90
       50
176
     1
290
     0
176
     1
 90
       50
176
     1
 62
   256
176
     0
 40
1.0
176
     0
 90
        2
176
     1
  1
strokes_ogs.tif
176
     1
290
     0
176
     1
 40
1.0
176
     1
 40
1.0
176
     1
  0
VISUALSTYLE
  5
3F
102
{ACAD_REACTORS
330
2A
102
}
330
2A
100
AcDbVisualStyle
  2
Sketchy
 70
    24
177
     3
291
     0
 70
    58
 90
        1
176
     1
 90
        2
176
     1
 90
        2
176
     1
 90
        0
176
     1
 40
0.6
176
     1
 40
30.0
176
     1
 62
     7
420
 16777215
176
     1
 90
        2
176
     1
 90
        2
176
     1
 62
     7
176
     1
 62
     7
176
     1
 90
        1
176
     1
 90
        1
176
     1
 40
40.0
176
     1
 90
       11
176
     1
 62
     7
176
     1
 40
1.0
176
     1
 90
        1
176
     1
 90
        6
176
     1
 90
        2
176
     1
 62
     7
176
     1
 90
        6
176
     1
 90
        0
176
     1
 90
        0
176
     1
290
     0
176
     1
 90
        1
176
     1
 40
0.0
176
     1
 90
        0
176
     1
290
     0
176
     1
290
     1
176
     1
290
     1
176
     1
290
     0
176
     1
290
     0
176
     1
290
     0
176
     1
290
     0
176
     1
290
     0
176
     1
290
     0
176
     1
 90
       50
176
     1
 40
0.0
176
     1
 40
1.0
176
     1
 90
        0
176
     1
 62
    18
420
        0
176
     1
 90
       50
176
     1
 90
        3
176
     1
 62
     5
420
      255
176
     1
290
     0
176
     1
 90
       50
176
     1
 90
       50
176
     1
 90
       50
176
     1
290
     0
176
     1
 90
       50
176
     1
 62
   256
176
     0
 40
1.0
176
     0
 90
        2
176
     1
  1
strokes_ogs.tif
176
     1
290
     0
176
     1
 40
1.0
176
     1
 40
1.0
176
     1
  0
VISUALSTYLE
  5
37
102
{ACAD_REACTORS
330
2A
102
}
330
2A
100
AcDbVisualStyle
  2
Thicken
 70
    13
177
     3
291
     1
 70
    58
 90
        2
176
     1
 90
        2
176
     1
 90
        0
176
     1
 90
        0
176
     1
 40
0.6
176
     1
 40
30.0
176
     1
 62
     7
420
 16777215
176
     1
 90
        1
176
     1
 90
        4
176
     1
 62
     7
176
     1
 62
   257
176
     1
 90
        1
176
     1
 90
        1
176
     1
 40
1.0
176
     1
 90
       12
176
     1
 62
     7
176
     1
 40
1.0
176
     1
 90
        1
176
     1
 90
        6
176
     1
 90
        2
176
     1
 62
     7
176
     1
 90
        5
176
     1
 90
        0
176
     1
 90
        0
176
     1
290
     0
176
     1
 90
        1
176
     1
 40
0.0
176
     1
 90
        0
176
     1
290
     0
176
     1
290
     1
176
     1
290
     1
176
     1
290
     0
176
     1
290
     0
176
     1
290
     0
176
     1
290
     0
176
     1
290
     0
176
     1
290
     0
176
     1
 90
       50
176
     1
 40
0.0
176
     1
 40
1.0
176
     1
 90
        0
176
     1
 62
    18
420
        0
176
     1
 90
       50
176
     1
 90
        3
176
     1
 62
     5
420
      255
176
     1
290
     0
176
     1
 90
       50
176
     1
 90
       50
176
     1
 90
       50
176
     1
290
     0
176
     1
 90
       50
176
     1
 62
   256
176
     0
 40
1.0
176
     0
 90
        2
176
     1
  1
strokes_ogs.tif
176
     1
290
     0
176
     1
 40
1.0
176
     1
 40
1.0
176
     1
  0
VISUALSTYLE
  5
30
102
{ACAD_REACTORS
330
2A
102
}
330
2A
100
AcDbVisualStyle
  2
Wireframe
 70
     5
177
     3
291
     0
 70
    58
 90
        0
176
     1
 90
        2
176
     1
 90
        0
176
     1
 90
        0
176
     1
 40
0.6
176
     1
 40
30.0
176
     1
 62
     7
420
 16777215
176
     1
 90
        1
176
     1
 90
        4
176
     1
 62
     7
176
     1
 62
   257
176
     1
 90
        1
176
     1
 90
        1
176
     1
 40
1.0
176
     1
 90
        0
176
     1
 62
   257
176
     1
 40
1.0
176
     1
 90
        1
176
     1
 90
        6
176
     1
 90
        2
176
     1
 62
     7
176
     1
 90
        3
176
     1
 90
        0
176
     1
 90
        0
176
     1
290
     0
176
     1
 90
        1
176
     1
 40
0.0
176
     1
 90
        0
176
     1
290
     0
176
     1
290
     1
176
     1
290
     1
176
     1
290
     0
176
     1
290
     0
176
     1
290
     0
176
     1
290
     0
176
     1
290
     0
176
     1
290
     0
176
     1
 90
       50
176
     1
 40
0.0
176
     1
 40
1.0
176
     1
 90
        0
176
     1
 62
    18
420
        0
176
     1
 90
       50
176
     1
 90
        3
176
     1
 62
     5
420
      255
176
     1
290
     0
176
     1
 90
       50
176
     1
 90
       50
176
     1
 90
       50
176
     1
290
     0
176
     1
 90
       50
176
     1
 62
   256
176
     0
 40
1.0
176
     0
 90
        2
176
     1
  1
strokes_ogs.tif
176
     1
290
     0
176
     1
 40
1.0
176
     1
 40
1.0
176
     1
  0
VISUALSTYLE
  5
40
102
{ACAD_REACTORS
330
2A
102
}
330
2A
100
AcDbVisualStyle
  2
X-Ray
 70
    25
177
     3
291
     0
 70
    58
 90
        2
176
     1
 90
        2
176
     1
 90
        1
176
     1
 90
        1
176
     1
 40
0.5
176
     1
 40
30.0
176
     1
 62
     7
420
 16777215
176
     1
 90
        1
176
     1
 90
        0
176
     1
 62
     7
176
     1
 62
   257
176
     1
 90
        1
176
     1
 90
        1
176
     1
 40
1.0
176
     1
 90
        8
176
     1
 62
     7
176
     1
 40
1.0
176
     1
 90
        1
176
     1
 90
        6
176
     1
 90
        2
176
     1
 62
     7
176
     1
 90
        3
176
     1
 90
        0
176
     1
 90
        0
176
     1
290
     0
176
     1
 90
       13
176
     1
 40
0.0
176
     1
 90
        0
176
     1
290
     0
176
     1
290
     1
176
     1
290
     1
176
     1
290
     0
176
     1
290
     0
176
     1
290
     0
176
     1
290
     0
176
     1
290
     0
176
     1
290
     0
176
     1
 90
       50
176
     1
 40
0.0
176
     1
 40
1.0
176
     1
 90
        0
176
     1
 62
    18
420
        0
176
     1
 90
       50
176
     1
 90
        3
176
     1
 62
     5
420
      255
176
     1
290
     0
176
     1
 90
       50
176
     1
 90
       50
176
     1
 90
       50
176
     1
290
     0
176
     1
 90
       50
176
     1
 62
   256
176
     0
 40
1.0
176
     0
 90
        2
176
     1
  1
strokes_ogs.tif
176
     1
290
     0
176
     1
 40
1.0
176
     1
 40
1.0
176
     1
  0
DICTIONARYVAR
  5
181
102
{ACAD_REACTORS
330
180
102
}
330
180
100
DictionaryVariables
280
     0
  1
1:1
  0
DICTIONARYVAR
  5
189
102
{ACAD_REACTORS
330
180
102
}
330
180
100
DictionaryVariables
280
     0
  1
3.500000
  0
DICTIONARYVAR
  5
18A
102
{ACAD_REACTORS
330
180
102
}
330
180
100
DictionaryVariables
280
     0
  1
acadiso.lin
  0
DICTIONARYVAR
  5
186
102
{ACAD_REACTORS
330
180
102
}
330
180
100
DictionaryVariables
280
     0
  1
Standard
  0
DICTIONARYVAR
  5
185
102
{ACAD_REACTORS
330
180
102
}
330
180
100
DictionaryVariables
280
     0
  1
Standard
  0
DICTIONARY
  5
182
330
6A
100
AcDbDictionary
280
     1
281
     1
  3
ACAD_ROUNDTRIP_2008_TABLESTYLE_CELLSTYLEMAP
360
183
  0
CELLSTYLEMAP
  5
183
102
{ACAD_REACTORS
330
182
102
}
330
182
100
AcDbCellStyleMap
 90
        3
300
CELLSTYLE
  1
TABLEFORMAT_BEGIN
 90
        5
170
     1
 91
        0
 92
    32768
 62
   257
 93
        1
300
CONTENTFORMAT
  1
CONTENTFORMAT_BEGIN
 90
        0
 91
        0
 92
        4
 93
        0
300

 40
0.0
140
1.0
 94
        5
 62
     0
340
11
144
6.0
309
CONTENTFORMAT_END
171
     1
301
MARGIN
  1
CELLMARGIN_BEGIN
 40
1.5
 40
1.5
 40
1.5
 40
1.5
 40
1.5
 40
1.5
309
CELLMARGIN_END
 94
        6
 95
        1
302
GRIDFORMAT
  1
GRIDFORMAT_BEGIN
 90
        0
 91
        1
 62
     0
 92
       -2
340
14
 93
        0
 40
0.045
309
GRIDFORMAT_END
 95
        2
302
GRIDFORMAT
  1
GRIDFORMAT_BEGIN
 90
        0
 91
        1
 62
     0
 92
       -2
340
14
 93
        0
 40
0.045
309
GRIDFORMAT_END
 95
        4
302
GRIDFORMAT
  1
GRIDFORMAT_BEGIN
 90
        0
 91
        1
 62
     0
 92
       -2
340
14
 93
        0
 40
0.045
309
GRIDFORMAT_END
 95
        8
302
GRIDFORMAT
  1
GRIDFORMAT_BEGIN
 90
        0
 91
        1
 62
     0
 92
       -2
340
14
 93
        0
 40
0.045
309
GRIDFORMAT_END
 95
       16
302
GRIDFORMAT
  1
GRIDFORMAT_BEGIN
 90
        0
 91
        1
 62
     0
 92
       -2
340
14
 93
        0
 40
0.045
309
GRIDFORMAT_END
 95
       32
302
GRIDFORMAT
  1
GRIDFORMAT_BEGIN
 90
        0
 91
        1
 62
     0
 92
       -2
340
14
 93
        0
 40
0.045
309
GRIDFORMAT_END
309
TABLEFORMAT_END
  1
CELLSTYLE_BEGIN
 90
        1
 91
        1
300
_TITLE
309
CELLSTYLE_END
300
CELLSTYLE
  1
TABLEFORMAT_BEGIN
 90
        5
170
     1
 91
        0
 92
        0
 62
   257
 93
        1
300
CONTENTFORMAT
  1
CONTENTFORMAT_BEGIN
 90
        0
 91
        0
 92
        4
 93
        0
300

 40
0.0
140
1.0
 94
        5
 62
     0
340
11
144
4.5
309
CONTENTFORMAT_END
171
     1
301
MARGIN
  1
CELLMARGIN_BEGIN
 40
1.5
 40
1.5
 40
1.5
 40
1.5
 40
1.5
 40
1.5
309
CELLMARGIN_END
 94
        6
 95
        1
302
GRIDFORMAT
  1
GRIDFORMAT_BEGIN
 90
        0
 91
        1
 62
     0
 92
       -2
340
14
 93
        0
 40
0.045
309
GRIDFORMAT_END
 95
        2
302
GRIDFORMAT
  1
GRIDFORMAT_BEGIN
 90
        0
 91
        1
 62
     0
 92
       -2
340
14
 93
        0
 40
0.045
309
GRIDFORMAT_END
 95
        4
302
GRIDFORMAT
  1
GRIDFORMAT_BEGIN
 90
        0
 91
        1
 62
     0
 92
       -2
340
14
 93
        0
 40
0.045
309
GRIDFORMAT_END
 95
        8
302
GRIDFORMAT
  1
GRIDFORMAT_BEGIN
 90
        0
 91
        1
 62
     0
 92
       -2
340
14
 93
        0
 40
0.045
309
GRIDFORMAT_END
 95
       16
302
GRIDFORMAT
  1
GRIDFORMAT_BEGIN
 90
        0
 91
        1
 62
     0
 92
       -2
340
14
 93
        0
 40
0.045
309
GRIDFORMAT_END
 95
       32
302
GRIDFORMAT
  1
GRIDFORMAT_BEGIN
 90
        0
 91
        1
 62
     0
 92
       -2
340
14
 93
        0
 40
0.045
309
GRIDFORMAT_END
309
TABLEFORMAT_END
  1
CELLSTYLE_BEGIN
 90
        2
 91
        1
300
_HEADER
309
CELLSTYLE_END
300
CELLSTYLE
  1
TABLEFORMAT_BEGIN
 90
        5
170
     1
 91
        0
 92
        0
 62
   257
 93
        1
300
CONTENTFORMAT
  1
CONTENTFORMAT_BEGIN
 90
        0
 91
        0
 92
        4
 93
        0
300

 40
0.0
140
1.0
 94
        2
 62
     0
340
11
144
4.5
309
CONTENTFORMAT_END
171
     1
301
MARGIN
  1
CELLMARGIN_BEGIN
 40
1.5
 40
1.5
 40
1.5
 40
1.5
 40
1.5
 40
1.5
309
CELLMARGIN_END
 94
        6
 95
        1
302
GRIDFORMAT
  1
GRIDFORMAT_BEGIN
 90
        0
 91
        1
 62
     0
 92
       -2
340
14
 93
        0
 40
0.045
309
GRIDFORMAT_END
 95
        2
302
GRIDFORMAT
  1
GRIDFORMAT_BEGIN
 90
        0
 91
        1
 62
     0
 92
       -2
340
14
 93
        0
 40
0.045
309
GRIDFORMAT_END
 95
        4
302
GRIDFORMAT
  1
GRIDFORMAT_BEGIN
 90
        0
 91
        1
 62
     0
 92
       -2
340
14
 93
        0
 40
0.045
309
GRIDFORMAT_END
 95
        8
302
GRIDFORMAT
  1
GRIDFORMAT_BEGIN
 90
        0
 91
        1
 62
     0
 92
       -2
340
14
 93
        0
 40
0.045
309
GRIDFORMAT_END
 95
       16
302
GRIDFORMAT
  1
GRIDFORMAT_BEGIN
 90
        0
 91
        1
 62
     0
 92
       -2
340
14
 93
        0
 40
0.045
309
GRIDFORMAT_END
 95
       32
302
GRIDFORMAT
  1
GRIDFORMAT_BEGIN
 90
        0
 91
        1
 62
     0
 92
       -2
340
14
 93
        0
 40
0.045
309
GRIDFORMAT_END
309
TABLEFORMAT_END
  1
CELLSTYLE_BEGIN
 90
        3
 91
        2
300
_DATA
309
CELLSTYLE_END
  0
ENDSEC
  0
EOF
